<?xml version="1.0" standalone="no"?>
<!DOCTYPE svg PUBLIC "-//W3C//DTD SVG 1.1//EN" "http://www.w3.org/Graphics/SVG/1.1/DTD/svg11.dtd" >
<svg xmlns="http://www.w3.org/2000/svg">
<metadata>
This is a custom SVG webfont generated by Font Squirrel.
Designer    : Philipp H. Poll
Foundry     : Philipp H. Poll
Foundry URL : http://linuxlibertine.sf.net
</metadata>
<defs>
<font id="webfontQE0QtpeE" horiz-adv-x="901" >
<font-face units-per-em="2048" ascent="1638" descent="-410" />
<missing-glyph horiz-adv-x="512" />
<glyph unicode=" "  horiz-adv-x="512" />
<glyph unicode="&#x09;" horiz-adv-x="512" />
<glyph unicode="&#xa0;" horiz-adv-x="512" />
<glyph unicode="!" horiz-adv-x="466" d="M123 88q0 44 32 76.5t76 32.5q45 0 77 -32.5t32 -76.5t-32 -76t-77 -32q-44 0 -76 32t-32 76zM231 1348q46 0 80.5 -39t34.5 -111q0 -75 -23 -203t-30 -192q-12 -97 -19 -183.5t-10 -134t-4 -55.5q-4 -41 -29 -41q-24 0 -28 27q-1 13 -5.5 78.5t-11.5 152t-14 156.5 q-7 72 -29 194t-22 201q0 75 34.5 112.5t75.5 37.5z" />
<glyph unicode="&#x22;" horiz-adv-x="688" d="M440 874q-53 326 -53 345q0 36 30.5 69t74.5 33q37 0 54 -20t17 -48q0 -14 -16.5 -106.5t-33.5 -178.5l-17 -85zM182 872q-53 326 -53 345q0 36 30.5 69t73.5 33q37 0 54.5 -20t17.5 -48q0 -14 -16.5 -106.5t-33.5 -178.5l-17 -85z" />
<glyph unicode="#" d="M547 473l35 225h-226l-37 -225h228zM649 698l-37 -225h185l-15 -98h-182l-57 -348h-68l53 348h-223l-57 -348h-68l56 348h-185l15 98h186l35 225h-185l17 101h184l55 348h70l-57 -348h227l53 348h68l-55 -348h186l-16 -101h-185z" />
<glyph unicode="$" d="M188 25q-15 0 -30.5 -11.5t-38.5 -11.5q0 60 -33 297l53 6q27 -101 96.5 -173.5t170.5 -82.5v492q-48 22 -80 38.5t-80.5 49.5t-78 67t-51.5 85t-22 108q0 51 19.5 95.5t51 76t72.5 55.5t83.5 36.5t85.5 16.5v115h69v-113q43 -2 120 -9t118 -7q5 -81 41 -293l-54 -8 l-10 37q-31 104 -81.5 156t-133.5 61v-438q344 -126 344 -351q0 -20 -1.5 -39.5t-9.5 -53.5t-21 -63.5t-39 -62.5t-61 -57t-90 -41.5t-122 -21.5v-146h-69v146q-64 5 -134 25t-84 20zM475 514v-465q34 5 65 17.5t62.5 36t50.5 64t19 93.5q0 58 -17.5 103t-50.5 74 t-61.5 45.5t-67.5 31.5zM406 698v410q-77 -11 -129 -67.5t-52 -143.5q0 -115 181 -199z" />
<glyph unicode="%" horiz-adv-x="1304" d="M885 170q0 -72 28 -103.5t64 -31.5q53 0 97.5 52t66.5 120.5t22 128.5q0 70 -30 97.5t-62 27.5q-47 0 -91.5 -48t-69.5 -115.5t-25 -127.5zM778 201q0 77 35.5 151t99 123t136.5 49t124.5 -42.5t51.5 -143.5q0 -54 -17.5 -115t-48.5 -117.5t-82.5 -93.5t-111.5 -37 q-88 0 -137.5 68t-49.5 158zM745 1067q83 0 174 26.5t134 84.5l65 -33l-839 -1170l-70 31l735 1024q-98 -39 -219 -39q-35 0 -84.5 13t-79.5 30q6 -21 6 -51q0 -51 -17.5 -112t-48.5 -118t-83 -94.5t-113 -37.5q-60 0 -103.5 34.5t-62 83.5t-18.5 105q0 121 80.5 223 t187.5 102q41 0 81 -15.5t56 -35.5q111 -51 219 -51zM225 815q0 -71 29 -103t63 -32q53 0 97.5 51t67 119.5t22.5 130.5q0 68 -28 96.5t-64 28.5q-48 0 -92.5 -48t-69.5 -115.5t-25 -127.5z" />
<glyph unicode="&#x26;" horiz-adv-x="1443" d="M512 692q-150 -83 -205 -169t-55 -204q0 -140 68.5 -206t175.5 -66q101 0 165.5 49t149.5 166q-82 108 -181 251.5t-118 178.5zM862 193q-75 -104 -166 -158.5t-215 -54.5q-85 0 -154 18.5t-123 57.5t-84 105.5t-30 157.5q0 123 88.5 229.5t288.5 219.5 q-102 176 -102 291q0 100 84.5 180t228.5 80q110 0 185 -60t75 -155q0 -82 -84.5 -174.5t-218.5 -169.5l8 -17q63 -108 250 -360q209 310 209 395q0 33 -33 33h-57q-11 0 -11 14v35l3 4q108 -4 178 -4l178 4l4 -4v-33q0 -16 -18 -16h-58q-45 0 -77.5 -39.5t-94.5 -153.5 q-92 -180 -174 -305l70 -94q44 -63 87 -96t70 -33q52 0 89 26t67 85l33 -17q-33 -102 -88 -153t-113 -51q-31 0 -51.5 3t-52 15t-64.5 42t-67 77zM590 842q97 64 154 135t57 127q0 69 -35 107t-98 38q-22 0 -47.5 -10.5t-50.5 -31.5t-41.5 -58.5t-16.5 -85.5q0 -74 78 -221z " />
<glyph unicode="'" horiz-adv-x="389" d="M162 872q-53 326 -53 345q0 36 30.5 69t73.5 33q37 0 54.5 -20t17.5 -48q0 -14 -17 -107l-34 -178l-17 -85z" />
<glyph unicode="(" horiz-adv-x="604" d="M90 516q0 274 121 520.5t313 411.5l37 -37q-311 -354 -311 -895q0 -537 311 -899l-37 -35q-87 76 -157.5 164t-115 166t-77 164t-48 149t-24.5 130.5t-10.5 98.5t-1.5 62z" />
<glyph unicode=")" horiz-adv-x="604" d="M516 516q0 -274 -120.5 -520.5t-313.5 -411.5l-37 37l39 45q17 21 51 70.5t60.5 98.5t58 125.5t52.5 155.5t35.5 184t14.5 216q0 542 -311 899l37 35q87 -76 157.5 -164t115 -166t77 -164t48 -149t24.5 -130.5t10.5 -98.5t1.5 -62z" />
<glyph unicode="*" horiz-adv-x="886" d="M406 1161q-36 8 -87 8q-82 0 -123.5 16.5t-41.5 59.5q0 25 16.5 43.5t50.5 18.5q30 0 59 -17.5t65.5 -45t72.5 -42.5q-4 41 -25.5 101.5t-21.5 87.5q0 33 17 56t44 23q30 0 49 -18t19 -53q0 -29 -18.5 -99.5t-20.5 -99.5q37 16 74 44.5t64 45.5t56 17q37 0 53.5 -20 t16.5 -42q0 -76 -141 -76q-64 0 -113 -8q25 -28 72 -58.5t72.5 -57t25.5 -62.5q0 -26 -18 -42.5t-41 -16.5q-36 0 -59.5 33t-46.5 93.5t-40 86.5q-15 -27 -39.5 -91t-46.5 -93t-57 -29q-26 0 -43 16.5t-17 40.5q0 39 27 65.5t74 56.5t72 58z" />
<glyph unicode="+" horiz-adv-x="1079" d="M592 526h352v-100h-352v-356h-105v356h-352v100h352v357h105v-357z" />
<glyph unicode="," horiz-adv-x="450" d="M213 195q61 0 98 -55.5t37 -147.5q0 -102 -73.5 -174t-172.5 -90q-20 17 -10 51q74 18 125 71t51 91q0 55 -73 63q-91 15 -91 90q0 44 31 72.5t78 28.5z" />
<glyph unicode="-" horiz-adv-x="681" d="M561 483h-463q-13 0 -21.5 10.5t-8.5 24.5q0 25 16.5 50.5t34.5 25.5h469q28 0 28 -37q0 -19 -18 -46.5t-37 -27.5z" />
<glyph unicode="." horiz-adv-x="450" d="M117 88q0 44 32 76.5t76 32.5q45 0 77 -32.5t32 -76.5t-32 -76t-77 -32q-44 0 -76 32t-32 76z" />
<glyph unicode="/" horiz-adv-x="661" d="M600 1323l-485 -1444h-84l485 1444h84z" />
<glyph unicode="0" d="M451 1112q-30 0 -56.5 -12t-55.5 -49t-49.5 -97t-34 -164t-13.5 -241q0 -49 2.5 -96.5t9.5 -108.5t21.5 -111t36 -94t55.5 -69t77 -25q17 0 36.5 6.5t45.5 23.5t50.5 55.5t39.5 94.5q37 136 37 400q0 182 -33.5 297.5t-82.5 158.5q-34 31 -86 31zM442 -23q-106 0 -191 83 t-130 217.5t-45 291.5q0 139 31.5 257t84 195t119.5 120t140 43q64 0 126.5 -37t108.5 -98q131 -172 131 -461q0 -131 -25 -238t-64 -174.5t-89.5 -114t-99.5 -65.5t-97 -19z" />
<glyph unicode="1" d="M391 975q-55 0 -178 -51l-31 55q249 116 391 205q12 0 13 -10q-6 -40 -6 -275v-721q0 -61 15 -87t62 -28l107 -4q16 0 16 -16v-43l-4 -4q-213 4 -276 4l-281 -4l-4 4v43q0 5 4.5 10.5t11.5 5.5l123 4q27 1 44 10t24 27.5t8.5 34t1.5 43.5v678q0 59 -8.5 89t-32.5 30z" />
<glyph unicode="2" d="M121 907q0 45 21.5 92.5t61 89.5t104 68.5t141.5 26.5q62 0 121 -17.5t110.5 -51.5t83 -92.5t31.5 -133.5q0 -53 -13.5 -98.5t-44 -89t-58.5 -73.5t-79 -79l-194 -189q-15 -14 -44.5 -47t-66.5 -93t-37 -101h348q53 0 83.5 32t51.5 115l52 -8l-41 -258h-633q0 49 6 84.5 t26.5 83t63.5 103t113 126.5l143 142q86 87 124 167.5t38 174.5q0 66 -20.5 115.5t-52.5 74.5t-63.5 37t-60.5 12q-95 0 -137.5 -38t-42.5 -85q0 -17 8 -47q8 -28 8 -45q0 -36 -22.5 -55t-50.5 -19q-33 0 -55.5 22.5t-22.5 53.5z" />
<glyph unicode="3" d="M444 1120q-24 0 -53.5 -7t-64.5 -22t-58.5 -47.5t-23.5 -76.5q0 -36 -16.5 -68.5t-53.5 -32.5q-24 0 -38 16.5t-16.5 29t-2.5 20.5q0 21 10.5 50.5t38 65.5t67 65.5t105.5 50t147 20.5q71 0 124 -20.5t80.5 -53t40.5 -66t13 -67.5q0 -144 -200 -270q47 -8 90.5 -28.5 t84.5 -56t66 -95.5t25 -136q0 -130 -61.5 -225t-159 -140.5t-215.5 -45.5q-61 0 -124.5 15.5t-110 46t-46.5 67.5q0 24 21.5 44.5t50.5 20.5q27 0 43 -11.5t33 -35.5q14 -23 28.5 -38.5t49 -30.5t79.5 -15q23 0 52.5 8t66 31t66 57.5t49.5 93t20 132.5q0 253 -258 253 q-19 0 -63 -8l-8 62q111 18 196.5 108t85.5 166q0 83 -46.5 128.5t-113.5 45.5z" />
<glyph unicode="4" d="M834 406q28 0 28 -31q0 -18 -18 -40t-37 -22h-137v-166q0 -46 13 -65.5t54 -22.5l56 -4q14 0 14 -14v-41l-4 -4q-129 4 -213 4l-215 -4l-4 4v41q0 14 14 14l55 4q47 3 68.5 23.5t21.5 64.5v166h-380q-64 0 -82 82q0 2 4 6q89 99 235.5 352.5t227.5 420.5q5 10 14 10 q2 0 15 -5t29.5 -10.5t27.5 -7.5q-122 -291 -414 -755h323v321q0 30 21 41q48 35 90 35q19 0 24 -14.5t5 -49.5v-333h164z" />
<glyph unicode="5" d="M627 346q0 151 -66.5 233.5t-167.5 82.5q-130 0 -246 -48l66 560q107 -11 209 -11q141 0 319 21l13 -6l-31 -134q-100 -10 -203 -10q-99 0 -233 17l-39 -324q83 31 196 31q104 0 183.5 -55.5t118 -140.5t38.5 -181q0 -173 -110 -287t-283 -114q-60 0 -126 19t-113.5 53.5 t-47.5 72.5q0 28 20.5 46.5t49.5 18.5q46 0 92 -63q27 -37 56 -57.5t73 -20.5q100 0 166 82.5t66 214.5z" />
<glyph unicode="6" d="M246 537q-2 -21 -2 -72q0 -99 16.5 -176t41.5 -123t59.5 -75.5t66.5 -40.5t66 -11q78 0 130 73.5t52 223.5q0 33 -5 67.5t-21 76.5t-40.5 74t-68 53.5t-99.5 21.5q-110 0 -196 -92zM776 1130q-108 -10 -192 -42.5t-154 -100.5q-144 -141 -178 -393q35 42 103.5 71 t127.5 29q86 0 152 -27.5t101.5 -66t57.5 -89.5t28.5 -88.5t6.5 -72.5q0 -46 -9.5 -92.5t-35 -97.5t-63.5 -90t-102.5 -64.5t-145.5 -25.5q-50 0 -97.5 11.5t-101 44.5t-93 85.5t-65.5 142.5t-26 207q0 144 53.5 277t157.5 237q98 99 207.5 145t261.5 54z" />
<glyph unicode="7" d="M332 1042q-24 0 -38.5 -1t-37 -8.5t-37.5 -22t-31.5 -42.5t-27.5 -69l-54 6q29 170 31 279q0 6 8 6q10 -2 34.5 -14.5t62.5 -12.5h399q81 0 150 21l30 -23q-256 -624 -442 -1179l-133 -7l-6 13q133 299 438 1054h-346z" />
<glyph unicode="8" d="M457 1135q-83 0 -132 -55t-49 -128q0 -36 7.5 -64t39 -69t89.5 -78l59 -36q25 18 49 39.5t53 53t46.5 69.5t17.5 75q0 76 -46 134.5t-134 58.5zM764 940q0 -44 -21 -87t-59 -80.5t-68.5 -61.5t-72.5 -52l119 -77q151 -100 151 -269q0 -57 -23.5 -114.5t-68 -107 t-118.5 -80.5t-165 -31q-158 0 -252 78.5t-94 224.5q0 134 113 233q86 75 141 117l-35 20q-89 56 -130.5 118.5t-41.5 143.5q0 115 91 192t237 77q139 0 218 -68.5t79 -175.5zM442 37q29 0 58.5 5.5t62.5 22t57.5 42t41 68.5t16.5 99q0 154 -172 258l-90 56 q-58 -39 -100 -85.5t-61.5 -88.5t-27.5 -73.5t-8 -57.5q0 -62 22 -111.5t56.5 -77.5t72 -42.5t72.5 -14.5z" />
<glyph unicode="9" d="M647 627q2 20 2 71q0 99 -16.5 176t-41.5 123t-59.5 75.5t-66.5 40.5t-66 11q-78 0 -130 -73.5t-52 -223.5q0 -33 5 -67.5t21 -76.5t40.5 -73.5t68 -53t99.5 -21.5q110 0 196 92zM117 33q108 10 192 42.5t154 100.5q142 139 178 393q-35 -42 -103.5 -71t-127.5 -29 q-86 0 -152 27.5t-102 66t-58 89.5t-28.5 88.5t-6.5 72.5q0 46 9.5 92.5t35 98t64 90.5t103 64.5t145.5 25.5q50 0 97.5 -11.5t101 -45t93 -85.5t65.5 -142.5t26 -207.5q0 -144 -53.5 -277t-157.5 -237q-97 -99 -207 -144.5t-262 -53.5z" />
<glyph unicode=":" horiz-adv-x="450" d="M131 727q0 44 32 76.5t77 32.5q44 0 76 -32.5t32 -76.5t-32 -76.5t-76 -32.5q-45 0 -77 32.5t-32 76.5zM131 188q0 45 32 77t77 32q44 0 76 -32t32 -77q0 -44 -32 -76t-76 -32q-45 0 -77 32t-32 76z" />
<glyph unicode=";" horiz-adv-x="450" d="M213 195q61 0 98 -55.5t37 -147.5q0 -102 -73.5 -174t-172.5 -90q-20 17 -10 51q74 18 125 71t51 91q0 55 -73 63q-91 15 -91 90q0 44 31 72.5t78 28.5zM111 727q0 44 32 76.5t76 32.5q45 0 77 -32.5t32 -76.5t-32 -76.5t-77 -32.5q-44 0 -76 32.5t-32 76.5z" />
<glyph unicode="&#x3c;" horiz-adv-x="997" d="M250 489l649 -237v-102l-799 290v99l799 288v-102z" />
<glyph unicode="=" horiz-adv-x="1079" d="M944 651v-100h-809v100h809zM944 395v-100h-809v100h809z" />
<glyph unicode="&#x3e;" horiz-adv-x="997" d="M750 483l-650 238v102l799 -291v-98l-799 -289v103z" />
<glyph unicode="?" horiz-adv-x="829" d="M199 1171q0 -38 12 -53t12 -49q0 -33 -24 -52.5t-56 -19.5q-31 0 -57.5 20.5t-26.5 67.5q0 102 105 185q93 80 254 80q156 0 247 -84.5t91 -225.5q0 -46 -14.5 -89t-33.5 -73t-52 -63t-56 -51l-61 -45q-86 -64 -107 -103q-37 -73 -37 -149v-90q0 -21 -26 -21 q-27 0 -27 21v94q0 42 3.5 73t15.5 76.5t42 91t76 89.5q66 61 94.5 111.5t28.5 119.5q0 102 -59.5 179t-145.5 77q-85 0 -141.5 -34.5t-56.5 -82.5zM260 88q0 44 32 76.5t77 32.5q44 0 76 -32.5t32 -76.5t-32 -76t-76 -32q-45 0 -77 32t-32 76z" />
<glyph unicode="@" horiz-adv-x="1832" d="M1165 647q0 57 -38 93t-95 36q-36 0 -90 -20t-94 -62q-139 -138 -139 -362q0 -189 159 -189q53 0 120 76.5t116 190.5q61 148 61 237zM1194 152q0 -14 8 -19.5t15 -5.5q82 0 141.5 21t105.5 69.5t69 134.5t23 211q0 122 -39.5 227t-103.5 177t-145.5 123.5t-165 75.5 t-162.5 24q-96 0 -188 -25t-177 -80.5t-149 -135.5t-102.5 -197t-38.5 -258q0 -99 19.5 -197t69.5 -199.5t125 -178.5t196.5 -126t273.5 -49q242 0 411 135l27 -37q-108 -83 -213 -124.5t-264 -41.5q-180 0 -332.5 60.5t-256.5 165.5t-162 248.5t-58 306.5q0 162 67 309 t179.5 253.5t268 169t325.5 62.5q162 0 303.5 -51.5t240.5 -141t156 -214t57 -266.5q0 -61 -13 -120t-40.5 -119t-74.5 -110.5t-110 -90t-153.5 -61.5t-198.5 -22q-40 0 -56.5 26t-16.5 58q0 33 30 129l-4 2q-63 -105 -137.5 -158t-134.5 -53q-72 0 -124.5 27.5t-78 70 t-36.5 81.5t-11 75q0 106 44 205.5t113 168.5t154 111t166 42q52 0 97.5 -24.5t60.5 -63.5l10 49l109 26l30 -10l-122 -528q-27 -116 -27 -137z" />
<glyph unicode="A" horiz-adv-x="1423" d="M539 580h356l-201 546h-2l-205 -520q-6 -14 9 -20t43 -6zM311 162q-16 -40 5.5 -69t76.5 -34l60 -4q16 0 16 -16v-39l-4 -4q-223 4 -272 4l-185 -4l-4 4v39q0 16 16 16q75 5 117 33.5t82 120.5l455 1065q14 32 33.5 53t37.5 21q16 0 28 -14.5t26 -47.5l420 -1110 q21 -59 55 -85.5t96 -33.5l23 -2q20 0 20 -16v-39l-6 -4q-158 4 -238 4l-272 -4l-2 4v39q0 16 14 16l58 4q59 5 80 25.5t6 62.5l-125 347h-426q-36 0 -50 -7.5t-22 -27.5z" />
<glyph unicode="B" horiz-adv-x="1191" d="M383 1165v-415h152q294 0 294 235q0 74 -25 129t-66.5 84t-85.5 42t-91 13q-45 0 -75 -1.5t-50 -7t-30.5 -10t-15.5 -17t-6 -22t-1 -30.5zM383 680v-520q0 -53 33.5 -73.5t136.5 -20.5q113 0 189 20.5t115 60t54 85t15 106.5q0 146 -94.5 244t-266.5 98h-182zM35 39 q0 16 14 16l62 4q67 5 86.5 19.5t19.5 66.5v1031q0 51 -19.5 66t-86.5 20l-62 4q-14 0 -14 14v41l4 2q158 -2 260 -2q51 0 133 1t115 1q440 0 440 -313q0 -82 -54.5 -157.5t-135.5 -115.5q143 -41 227 -130.5t84 -229.5q0 -56 -14 -107.5t-51 -102.5t-93.5 -88t-148 -60 t-209.5 -23q-99 0 -171.5 2t-121.5 2l-260 -4l-4 4v39z" />
<glyph unicode="C" horiz-adv-x="1318" d="M727 -20q-128 0 -236 37.5t-183.5 101.5t-128.5 149.5t-78 180.5t-25 196q0 148 54.5 280t144.5 224t209 145.5t245 53.5q86 0 160 -13.5t115.5 -30t89 -32t84.5 -17.5q10 -142 45 -317l-62 -8q-103 342 -454 342q-51 0 -109.5 -20.5t-120 -67.5t-111 -113t-81 -167 t-31.5 -220q0 -91 18 -179.5t56.5 -168.5t93 -140.5t133 -96.5t170.5 -36q143 0 255 52.5t220 171.5l47 -31q-104 -136 -237 -206t-283 -70z" />
<glyph unicode="D" horiz-adv-x="1427" d="M35 37q0 18 14 18l62 4q55 3 80.5 24t25.5 69v1019q0 54 -20 70t-86 21l-58 4q-18 0 -18 16v37l4 4q50 0 129 -1t129 -1q65 0 168 1t168 1q193 0 355.5 -93t256.5 -252t94 -347q0 -105 -22 -193.5t-60 -153t-91 -115t-111.5 -82.5t-126 -53t-130.5 -29.5t-128 -8.5 q-114 0 -211.5 2t-161.5 2q-168 0 -258 -4l-4 4v37zM383 147q0 -35 14.5 -50.5t61 -23t147.5 -7.5q92 0 168 13.5t148 49t121 92.5t78.5 148.5t29.5 212.5q0 99 -19 191.5t-64 180.5t-112 153.5t-170 105.5t-231 40q-44 0 -70.5 -2t-52 -9.5t-37.5 -23.5t-12 -42v-1029z" />
<glyph unicode="E" horiz-adv-x="1124" d="M911 1323q3 -14 20.5 -126.5t24.5 -170.5l-59 -10q-16 49 -27.5 78t-30.5 60.5t-41.5 47.5t-56.5 26.5t-79 10.5h-216q-38 0 -55.5 -14.5t-17.5 -50.5v-435h260q52 0 74.5 20.5t27.5 65.5l6 52q0 6 4.5 11t10.5 5h45q8 0 8 -8q-8 -109 -8 -176l8 -187l-6 -6h-47 q-8 0 -12.5 4.5t-4.5 9.5l-4 54q-3 44 -26 61t-76 17h-260v-515q0 -39 18 -53t55 -14h279q203 0 276 268l64 -10l-76 -342q-164 4 -262 4h-436l-262 -4l-4 4v41q0 14 16 14l61 4q59 5 82 25t23 63v1027q0 46 -22.5 64.5t-82.5 23.5l-61 4q-16 0 -16 14v41l4 2q207 -2 262 -2 h516q49 0 96 8q8 0 8 -6z" />
<glyph unicode="F" horiz-adv-x="976" d="M207 1174q0 46 -22.5 64.5t-82.5 23.5l-61 4q-16 0 -16 14v41l4 2q207 -2 262 -2h516q49 0 96 8q8 0 8 -6q3 -14 20.5 -126.5t24.5 -170.5l-59 -10q-16 49 -27.5 78t-30.5 60.5t-41.5 47.5t-56.5 26.5t-79 10.5h-216q-38 0 -55.5 -14.5t-17.5 -50.5v-435h260 q52 0 74.5 20.5t27.5 65.5l6 52q0 6 4.5 11t10.5 5h45q8 0 8 -8q-8 -113 -8 -180l8 -183l-6 -6h-47q-8 0 -12.5 4.5t-4.5 9.5l-4 54q-3 44 -26 61t-76 17h-260v-515q0 -48 26 -70t86 -22h54q16 0 16 -16v-39l-2 -4q-158 4 -258 4l-264 -4l-4 4v39q0 16 16 16h53 q60 0 85.5 23.5t25.5 68.5v1027z" />
<glyph unicode="G" horiz-adv-x="1419" d="M768 1348q85 0 157.5 -14.5t113.5 -32t88.5 -32t86.5 -14.5q20 -198 46 -315l-62 -12q-17 57 -39.5 103.5t-59.5 93t-85 77.5t-118.5 50.5t-156.5 19.5q-137 0 -250 -75t-179 -213.5t-66 -313.5q0 -104 37.5 -211t105.5 -198.5t177.5 -149.5t240.5 -58q86 0 168 25.5 t133 73.5v313q0 46 -24.5 63.5t-88.5 22.5l-53 4q-16 0 -16 16v54l4 4q178 -4 258 -4l190 4l4 -4v-54q0 -13 -16 -16q-49 -5 -70.5 -22.5t-21.5 -67.5v-238q0 -31 33 -57q-110 -94 -241.5 -142t-305.5 -48q-151 0 -281.5 51.5t-219.5 139.5t-140 207t-51 251q0 163 60 301 t159 228t224.5 140t258.5 50z" />
<glyph unicode="H" horiz-adv-x="1433" d="M1051 147v510h-668v-510q0 -46 25 -64.5t88 -23.5l53 -4q16 0 16 -16v-39l-4 -4q-176 4 -258 4l-262 -4l-4 4v39q0 16 14 16l55 4q62 5 86.5 25t24.5 63v1029q0 44 -25 62.5t-86 23.5l-55 4q-16 0 -16 16v39l4 2q178 -2 258 -2l264 2l4 -2v-39q0 -16 -16 -16l-53 -4 q-62 -5 -87.5 -24.5t-25.5 -61.5v-433h668v433q0 45 -24.5 63t-86.5 23l-53 4q-19 0 -19 16v39l4 2q179 -2 258 -2l265 2l4 -2v-39q0 -16 -17 -16l-53 -4q-62 -5 -87 -24t-25 -62v-1029q0 -48 26 -70t86 -22h53q19 0 19 -16v-39l-4 -4q-178 4 -258 4l-265 -4l-4 4v39 q0 16 17 16h53q60 0 85.5 23.5t25.5 68.5z" />
<glyph unicode="I" horiz-adv-x="600" d="M383 1176v-1031q0 -45 25 -63t88 -23l53 -4q16 0 16 -16v-39l-4 -4q-98 4 -260 4q-160 0 -260 -4l-4 4v39q0 16 14 16l55 4q64 5 87.5 24t23.5 62v1031q0 45 -24.5 63t-86.5 23l-55 4q-16 0 -16 16v39l4 2q102 -2 260 -2q162 0 262 2l4 -2v-39q0 -16 -16 -16l-53 -4 q-62 -5 -87.5 -24.5t-25.5 -61.5z" />
<glyph unicode="J" horiz-adv-x="645" d="M121 -272q23 0 44 8.5t45.5 36t41.5 72t29 124t12 185.5v991q0 71 -30.5 92t-115.5 27l-41 2q-18 0 -18 16v37l4 4q201 -2 281 -2l243 2l5 -4v-37q0 -16 -17 -16l-35 -2q-61 -3 -85.5 -23.5t-24.5 -64.5v-977q0 -125 -31 -221.5t-74.5 -153t-109.5 -109.5 q-96 -80 -234 -80q-42 0 -86.5 30.5t-44.5 80.5q0 31 26.5 52.5t51.5 21.5q29 0 51.5 -9.5t32 -19t22.5 -27.5q27 -36 58 -36z" />
<glyph unicode="K" horiz-adv-x="1304" d="M383 633v-488q0 -45 25 -63t88 -23l53 -4q16 0 16 -16v-39l-4 -4q-98 4 -260 4q-160 0 -260 -4l-4 4v39q0 16 14 16l55 4q64 5 87.5 24t23.5 62v1031q0 45 -24.5 63t-86.5 23l-55 4q-16 0 -16 16v39l4 2q102 -2 260 -2q162 0 262 2l4 -2v-39q0 -16 -16 -16l-53 -4 q-62 -5 -87.5 -24.5t-25.5 -61.5v-465q94 5 164 80l344 360q30 33 41 55t0 37t-49 19l-43 4q-17 0 -17 16v39l4 2q156 -2 238 -2l197 2l10 -2v-39q0 -16 -23 -16q-53 -7 -84 -14.5t-79.5 -34.5t-92.5 -74l-286 -309q-49 -51 -62.5 -70t-13.5 -31q0 -24 24 -51l449 -532 q36 -45 73.5 -65.5t86.5 -27.5l14 -2q18 -5 18 -16v-39l-6 -4q-153 4 -233 4l-123 -4l-4 4v12q0 86 -41 138l-334 405q-61 78 -172 78z" />
<glyph unicode="L" horiz-adv-x="1077" d="M715 80q56 0 99.5 20.5t73 59.5t49 83t36.5 105l61 -10q-44 -215 -53 -342q-188 4 -244 4h-436l-262 -4l-4 4v39q0 16 16 16l62 4q64 5 84 21t20 67v1029q0 44 -25 62.5t-86 23.5l-55 4q-16 0 -16 16v39l4 2q178 -2 258 -2l264 2l4 -2v-39q0 -16 -16 -16l-53 -4 q-63 -5 -88 -24t-25 -62v-994q0 -47 26 -74.5t70 -27.5h236z" />
<glyph unicode="M" horiz-adv-x="1718" d="M1362 178l-57 916h-5l-460 -1084q-12 -22 -29 -22q-22 0 -31 22l-424 1063h-4l-86 -897q-5 -49 11.5 -81.5t58.5 -35.5l53 -4q21 0 21 -16v-37l-4 -6q-107 4 -189 4l-184 -4l-2 4v39q0 16 18 16l55 4q74 5 82 117l99 1000q5 45 -11.5 63.5t-66.5 22.5l-60 4q-20 0 -20 14 v37l6 6h301l420 -1042q9 -27 16 -27q8 0 19 29l434 1040h274l5 -6v-37q0 -14 -23 -14l-55 -4q-44 -4 -62.5 -25t-15.5 -61l72 -998q3 -57 20 -86.5t64 -32.5l55 -4q22 -3 22 -16v-39l-4 -4q-149 4 -229 4l-219 -4l-6 4v39q0 7 5.5 11.5t12.5 4.5l55 4q40 3 56 38t12 81z" />
<glyph unicode="N" horiz-adv-x="1423" d="M1235 1141v-1098q0 -59 -43 -59q-51 3 -82 45l-715 903q-52 67 -69 67q-12 0 -16.5 -22.5t-4.5 -77.5v-719q0 -50 27.5 -83t85.5 -38l53 -4q16 0 16 -16v-39l-4 -4q-145 4 -227 4l-229 -4l-4 4v37q0 15 26 18l53 4q58 5 84.5 39.5t26.5 81.5v946q-10 45 -51.5 90.5 t-87.5 49.5q-35 4 -35 16v37l6 4h279l702 -907q74 -96 89 -107q8 -6 13 -6q10 0 12.5 13.5t2.5 48.5v776q0 48 -26 82t-85 39l-53 4q-9 0 -19 4.5t-10 11.5v39l8 2q154 -2 228 -2l227 2l4 -2v-39q0 -16 -16 -16l-55 -4q-57 -5 -84 -38t-27 -83z" />
<glyph unicode="O" horiz-adv-x="1429" d="M684 1278q-61 0 -119.5 -21.5t-114 -69.5t-97 -117t-66.5 -172.5t-25 -227.5q0 -143 42 -262.5t112 -196.5t157.5 -119.5t180.5 -42.5q179 0 296 158.5t117 427.5q0 312 -130 477.5t-353 165.5zM1356 674q0 -310 -176 -502t-467 -192q-177 0 -321 78.5t-230 229 t-86 347.5q0 198 81.5 361.5t227.5 257.5t326 94q137 0 256 -49t205 -136t135 -213.5t49 -275.5z" />
<glyph unicode="P" horiz-adv-x="1067" d="M383 1176v-519q38 -10 145 -10q153 0 231.5 74.5t78.5 236.5q0 76 -16.5 132.5t-43.5 90t-65.5 54.5t-77 28t-84.5 7q-103 0 -135.5 -22t-32.5 -72zM217 145v1031q0 44 -28 64t-62 22l-80 4q-12 0 -12 12v43l4 2q166 -2 260 -2q31 0 136 9t130 9q91 0 165 -17t121.5 -46 t82 -63.5t52 -75t25 -74.5t7.5 -68q0 -56 -13.5 -110.5t-48.5 -111t-87.5 -99t-137.5 -69.5t-192 -27q-92 0 -156 20v-453q0 -45 24.5 -63t86.5 -23l55 -4q16 0 16 -16v-39l-4 -4q-178 4 -258 4l-264 -4l-4 4v39q0 16 16 16l53 4q62 5 87.5 24.5t25.5 61.5z" />
<glyph unicode="Q" horiz-adv-x="1429" d="M684 1278q-61 0 -119.5 -21.5t-114 -69.5t-97 -117t-66.5 -172.5t-25 -227.5q0 -143 42 -262.5t112 -196.5t157.5 -119.5t180.5 -42.5q179 0 296 158.5t117 427.5q0 312 -130 477.5t-353 165.5zM285 -313q53 77 147 159t201 138q-119 14 -220.5 65t-176.5 133.5 t-117.5 199t-42.5 253.5q0 198 81.5 361.5t227.5 257.5t326 94q137 0 256 -49t205 -136t135 -213.5t49 -275.5q0 -273 -138 -457t-374 -225q-138 -39 -275 -139q30 4 41 4q76 0 159 -26.5t144 -57.5t135 -57.5t134 -26.5q49 0 98 18.5t80 56.5l35 -24q-61 -88 -130.5 -128 t-164.5 -40q-74 0 -143.5 20t-124.5 49l-104 57q-51 29 -106.5 49t-107.5 20q-32 0 -77 -29.5t-72 -91.5z" />
<glyph unicode="R" horiz-adv-x="1185" d="M557 1270q-102 0 -138 -23t-36 -71v-510h102q64 0 113.5 8t96 29t77 55t48.5 90t18 131q0 86 -25.5 146.5t-69 90.5t-88.5 42t-98 12zM555 1339q118 0 202.5 -20t151.5 -82q109 -103 109 -256q0 -61 -20 -116t-50 -92.5t-68.5 -68t-71.5 -47.5t-63 -26l259 -430 q48 -79 90.5 -118.5t105.5 -39.5l2 -49q-28 -14 -86 -14q-158 0 -270 182l-219 356q-25 40 -75 59t-169 19v-449q0 -45 24.5 -64t86.5 -24l55 -4q16 0 16 -16v-39l-4 -4q-178 4 -258 4l-264 -4l-4 4v39q0 16 16 16l53 4q64 5 88.5 25t24.5 63v1029q0 44 -28 64t-62 22l-80 4 q-12 0 -12 12v43l4 2q166 -2 260 -2q32 0 132 9t124 9z" />
<glyph unicode="S" horiz-adv-x="972" d="M793 1292q5 -38 10.5 -90.5t10.5 -91t13 -82.5l-63 -12q-14 47 -26.5 79.5t-35.5 70t-51.5 60t-73.5 37.5t-102 15q-99 0 -162 -66.5t-63 -162.5q0 -179 278 -279q59 -21 104.5 -41.5t96 -55t83.5 -73.5t55 -97t22 -126q0 -103 -56.5 -196t-155 -149.5t-212.5 -56.5 q-93 0 -197 17.5t-159 17.5q-5 108 -39 328l63 6q62 -295 348 -295q117 0 180.5 66t63.5 190q0 65 -17 113.5t-51 82t-70 54t-89 41.5q-66 25 -113 47t-102.5 57.5t-90 74.5t-58 95.5t-23.5 122.5q0 104 59 187t145.5 125.5t178.5 42.5q84 0 132 -10t87 -25t80 -21z" />
<glyph unicode="T" horiz-adv-x="1161" d="M158 1321h866q45 0 45 47l53 8q0 -140 27 -315l-62 -10q-14 66 -23.5 97t-27.5 55.5t-42.5 31t-67.5 6.5h-135q-57 0 -78 -17.5t-21 -68.5v-1008q0 -46 25.5 -64.5t87.5 -23.5l53 -4q19 0 19 -16v-39l-5 -4q-180 4 -260 4l-262 -4l-4 4v39q0 16 16 16l54 4 q63 5 86.5 24.5t23.5 63.5v1014q0 47 -21 63.5t-79 16.5h-170q-85 0 -117 -34t-63 -156l-62 10q30 131 45 315l56 -8q0 -47 43 -47z" />
<glyph unicode="U" horiz-adv-x="1353" d="M657 -20q-61 0 -120.5 11.5t-125.5 46t-115 88t-81.5 146t-32.5 211.5v688q0 47 -24.5 66.5t-85.5 24.5l-56 4q-16 0 -16 16v39l4 2q178 -2 258 -2l264 2l4 -2v-39q0 -16 -16 -16l-53 -4q-62 -5 -87.5 -26t-25.5 -65v-620q0 -54 1 -82.5t6.5 -78t16 -82.5t32.5 -72 t53 -70q105 -103 243 -103q63 0 115.5 12t90 35t66 51.5t47 68t30.5 77t18 85.5t8 87t2 88v600q0 48 -24 69t-86 26l-56 4q-16 0 -16 16v39l4 2q145 -2 225 -2l226 2l4 -2v-39q0 -16 -17 -16l-53 -4q-62 -5 -87.5 -27.5t-25.5 -67.5v-563q0 -116 -13 -205.5t-47.5 -170.5 t-91 -134t-148 -83.5t-214.5 -30.5z" />
<glyph unicode="V" horiz-adv-x="1273" d="M991 1157q21 55 -3.5 79.5t-86.5 27.5l-33 2q-16 0 -16 16v39l4 2q145 -2 225 -2l189 2l4 -2v-39q0 -16 -17 -16q-77 -4 -114 -37.5t-62 -98.5l-415 -1107q-20 -48 -50 -48t-47 48l-397 1116q-25 70 -52.5 94.5t-103.5 32.5q-16 0 -16 16v39l4 2q160 -2 240 -2l233 2 l4 -2v-39q0 -13 -16 -16l-35 -4q-72 -10 -89.5 -27.5t-0.5 -63.5l324 -911h8z" />
<glyph unicode="W" horiz-adv-x="1892" d="M1608 1157q18 57 -5.5 80.5t-84.5 26.5l-33 2q-6 0 -11.5 4.5t-5.5 11.5v39l5 2q145 -2 225 -2l188 2l4 -2v-39q0 -16 -16 -16q-78 -4 -115.5 -38t-58.5 -95l-383 -1110q-15 -48 -55 -48q-47 0 -64 50l-240 727q-20 57 -28 57q-12 0 -29 -51l-244 -733q-14 -50 -57 -50 q-48 0 -63 50l-373 1114q-28 82 -49.5 102.5t-89.5 24.5q-25 3 -25 14v39l4 4q107 -2 184 -2l248 2l4 -4v-37q0 -16 -18 -16l-45 -2q-58 -3 -58 -39q0 -17 13 -54l307 -944h4l217 678q14 44 14 78q0 32 -10 57l-30 95q-7 21 -12 33.5t-17.5 32.5t-27 31.5t-39.5 21.5t-56 12 q-25 0 -25 14v39l5 4q114 -2 196 -2l262 2l6 -4v-39q0 -14 -18 -14l-59 -4q-85 -8 -45 -127l294 -912h5z" />
<glyph unicode="X" horiz-adv-x="1341" d="M27 1280v39l8 4q186 -2 209 -2l245 2q7 -4 9 -4v-39q0 -14 -11 -14l-65 -4q-25 -2 -36 -8t-8.5 -19.5t9.5 -26t25 -37.5l243 -360q18 -23 25 -23t27 25l264 358q20 29 27 47t-2 30t-38 14l-61 4q-14 0 -14 14v41l4 2q180 -2 203 -2l198 2l6 -2v-41q0 -14 -18 -14 q-45 -1 -79 -11t-61 -32t-43 -40t-42 -53l-269 -362q-26 -36 -26 -61t32 -68l316 -430q101 -146 217 -154q14 0 14 -14v-41l-4 -4q-110 4 -215 4l-256 -4l-6 4v41q0 14 12 14l41 4q60 7 63.5 23t-36.5 68l-270 385q-18 22 -29 22t-31 -29l-270 -370q-20 -28 -26 -46.5 t6.5 -33.5t50.5 -19l38 -4q13 -2 13 -14v-41l-6 -4q-199 4 -230 4l-172 -4l-2 4v41q0 14 23 14q42 2 79 17.5t67 42t48.5 47.5t40.5 51l281 383q20 27 20 47q0 26 -28 62l-295 419q-89 126 -183 142q-32 6 -32 14z" />
<glyph unicode="Y" horiz-adv-x="1175" d="M520 147v383q0 61 -18 88l-297 502q-53 87 -80 113t-80 31l-25 2q-20 0 -20 14v41l2 2q191 -2 217 -2l236 2l2 -2v-39q0 -16 -13 -16l-59 -2q-21 -1 -33 -5t-16.5 -9.5t-1.5 -18t8 -21.5l16 -30l281 -494h4l262 494q24 47 16 63.5t-44 18.5l-62 4q-10 0 -10 14v41l2 2 q162 -2 188 -2l179 2l4 -2v-41q0 -10 -21 -14l-43 -4q-34 -3 -58 -18t-35.5 -31.5t-33.5 -55.5l-289 -522q-14 -32 -14 -86v-402q0 -48 26.5 -70t86.5 -22h55q16 0 16 -16v-39l-4 -4q-178 4 -258 4l-264 -4l-4 4v39q0 16 16 16h54q60 0 86 23.5t26 68.5z" />
<glyph unicode="Z" horiz-adv-x="1236" d="M1128 -4q-204 4 -260 4h-745q-39 0 -39 31q0 24 16 47l797 1108q16 22 16 37q0 16 -20 16h-473q-45 0 -79.5 -13t-56.5 -31t-41.5 -54t-30 -65.5t-26.5 -80.5l-61 11q33 172 45 342q30 -3 71.5 -15t94.5 -12h657q34 3 76 11.5t53 8.5q28 0 37.5 -4.5t9.5 -15.5 q0 -42 -49 -111l-768 -1063q-16 -29 -16 -41q0 -26 51 -26h477q56 0 99 20t72.5 59.5t48.5 83.5t36 105l64 -10q-39 -169 -56 -342z" />
<glyph unicode="[" horiz-adv-x="729" d="M225 -393v1833h430v-62q-55 -4 -93.5 -8t-71.5 -11.5t-53.5 -14.5t-37 -21.5t-24.5 -28t-13 -37.5t-6.5 -47.5t-1.5 -60.5v-1251q0 -50 2.5 -78t13.5 -56t28.5 -41t53.5 -26t82.5 -19t120.5 -12v-59h-430z" />
<glyph unicode="\" horiz-adv-x="587" d="M113 1430l471 -1528h-90l-471 1528h90z" />
<glyph unicode="]" horiz-adv-x="729" d="M504 1440v-1833h-430v61q74 6 120 11.5t82 18t54 26t29 40.5t13.5 55.5t2.5 78.5v1251q0 50 -2.5 78t-13.5 55.5t-28.5 41t-53.5 26t-82.5 18.5t-120.5 12v60h430z" />
<glyph unicode="^" horiz-adv-x="1060" d="M530 1214l-208 -505h-93l260 622h86l259 -622h-93z" />
<glyph unicode="_" horiz-adv-x="995" d="M987 -225v-90h-977v90h977z" />
<glyph unicode="`" horiz-adv-x="802" d="M365 1432l143 -258q12 -25 12 -50q0 -8 -9.5 -15t-21.5 -7q-15 0 -59 41l-233 223l4 23q63 47 133 47q13 0 31 -4z" />
<glyph unicode="a" horiz-adv-x="923" d="M596 477l-162 -43q-198 -54 -198 -225q0 -55 40 -100.5t111 -45.5q70 0 180 89q29 20 29 53v272zM596 98h-4l-41 -32q-68 -53 -110.5 -69.5t-112.5 -16.5q-116 0 -185 53t-69 168q0 102 91.5 180.5t242.5 116.5l176 43q12 4 12 24q0 67 -11 117.5t-27 79.5t-39.5 46.5 t-44 23.5t-44.5 6q-66 0 -118 -24t-52 -69q0 -28 4 -40q6 -13 6 -37t-24.5 -46t-65.5 -22q-71 0 -71 72q0 54 49 107t128 86.5t160 33.5q49 0 89.5 -8t81.5 -30.5t68.5 -59.5t45 -100.5t17.5 -147.5v-305q0 -29 0.5 -46.5t3 -41t7.5 -37t13.5 -27.5t23 -20t33.5 -6 q22 0 36 8t21 16t11 8q6 0 14.5 -10t8.5 -20q0 -4 -8 -14t-23.5 -23t-35.5 -25.5t-47.5 -21t-55.5 -8.5q-121 0 -154 118z" />
<glyph unicode="b" horiz-adv-x="997" d="M313 145q37 -46 70.5 -71t77.5 -25q140 0 213.5 113t73.5 297q0 148 -66 249t-160 101q-21 0 -47 -3.5t-76 -24.5t-86 -58v-578zM160 1153q0 95 -14.5 127.5t-47.5 32.5l-65 4q-13 0 -13 10l-4 49q63 5 151.5 22t125.5 32q26 0 26 -21q-6 -82 -6 -215v-408 q104 113 250 113q67 0 131 -28.5t115 -79t82 -128t31 -167.5q0 -117 -40.5 -217t-105.5 -164t-144 -99.5t-159 -35.5q-126 0 -213 75q-33 -48 -67 -80q-28 0 -43 11q10 56 10 159v1008z" />
<glyph unicode="c" horiz-adv-x="841" d="M803 186q-65 -112 -140 -159t-171 -47q-192 0 -304 123t-112 323q0 211 123.5 342t296.5 131q140 0 220.5 -61t80.5 -148q0 -42 -23 -66t-57 -24q-35 0 -60.5 19t-29.5 55q-4 28 -6.5 43t-12.5 39.5t-23.5 38t-39 24t-60.5 10.5q-104 0 -169.5 -96.5t-65.5 -261.5 q0 -177 83 -289t204 -112q128 0 229 145z" />
<glyph unicode="d" horiz-adv-x="1030" d="M702 193v514q-39 61 -85 90.5t-115 29.5q-123 0 -191 -102q-57 -82 -57 -272q0 -180 66.5 -278.5t156.5 -98.5q80 0 225 117zM856 1194v-956q0 -76 9 -96t42 -23l99 -10l6 -48q-199 -35 -262 -86h-48l5 146h-5q-174 -141 -278 -141q-162 0 -253 121t-91 315 q0 223 137 360q65 62 137.5 92.5t169.5 30.5q34 0 89.5 -13t88.5 -32v299q0 95 -14 127.5t-47 32.5l-66 4q-12 0 -12 10l-4 49q64 5 151 21.5t126 32.5q26 0 26 -21q-6 -82 -6 -215z" />
<glyph unicode="e" horiz-adv-x="874" d="M240 588h376q29 0 29 28q0 61 -15.5 105t-42 66.5t-54 32t-58.5 9.5q-20 0 -39.5 -2.5t-52.5 -16t-58.5 -37.5t-50 -72t-34.5 -113zM780 195l41 -33q-61 -84 -150 -133t-196 -49q-200 0 -302.5 120t-102.5 308q0 112 36 207t94 156t129.5 94.5t145.5 33.5q78 0 138 -21 t96.5 -54.5t59.5 -81.5t31.5 -96t8.5 -103q0 -35 -37 -35h-539q0 -88 19.5 -161.5t50 -121.5t70 -81.5t77.5 -48.5t74 -15q83 0 142 27.5t114 87.5z" />
<glyph unicode="f" horiz-adv-x="630" d="M197 147v652h-142q-10 0 -10 12v27q0 15 11 28t36 13h105v82q0 115 31.5 207t83.5 148t114.5 85t128.5 29q109 0 182 -50q60 -44 60 -98q0 -32 -20 -53t-50 -21q-57 0 -84 58q-20 50 -50 72t-77 22q-23 0 -43.5 -7t-44 -30.5t-40 -62t-27.5 -106.5t-11 -159v-116h225 q17 0 17 -13v-41q0 -12 -15.5 -19t-31.5 -7h-195v-652q0 -45 19.5 -65t68.5 -23l68 -4q16 0 16 -16v-39l-4 -4q-151 4 -248 4l-213 -4l-4 4v39q0 16 17 16l39 2q50 3 69 23.5t19 66.5z" />
<glyph unicode="g" horiz-adv-x="980" d="M631 571q0 127 -50.5 196t-142.5 69q-157 0 -157 -218q0 -57 6 -99.5t24 -86t56.5 -67t97.5 -23.5q30 0 56.5 9.5t53 33t41.5 71t15 115.5zM262 -20q-39 -49 -50 -90.5t-11 -102.5q0 -49 26.5 -89.5t65 -63t76 -34.5t65.5 -12q92 0 178.5 24.5t147.5 78t61 123.5 q0 39 -21.5 66t-78.5 61q-39 22 -94 28t-146 6q-10 0 -58 -3t-83 -3q-42 0 -78 11zM877 795q-45 0 -62 34q-16 25 -35 25q-17 0 -41.5 -16t-36.5 -33q45 -48 64.5 -95.5t19.5 -117.5q0 -144 -97.5 -228.5t-233.5 -84.5q-110 0 -181 43q-34 -54 -34 -119q0 -61 37 -89t88 -28 q1 0 59 4q78 10 129 10q211 0 289 -67q86 -74 86 -166q0 -80 -49 -148t-128 -112.5t-176.5 -69t-197.5 -24.5q-60 0 -112.5 12t-98.5 37.5t-73 72.5t-27 111q0 68 41.5 134t117.5 114q-39 20 -63.5 62t-24.5 96t23 112.5t63 93.5q-49 50 -75.5 102t-26.5 128 q0 136 100 223.5t236 87.5q123 0 205 -57q35 48 93 76t101 28q39 0 64.5 -22.5t25.5 -55.5t-19 -53t-50 -20z" />
<glyph unicode="h" horiz-adv-x="1064" d="M334 1194v-465q170 170 338 170q221 0 221 -317v-435q0 -45 18.5 -64t69.5 -24l39 -4q16 0 16 -16v-39l-4 -4q-139 4 -221 4l-211 -4l-4 4v39q0 13 16 16l39 4q52 7 70 25t18 63v457q0 82 -17 125.5t-49 58.5t-93 15q-94 0 -246 -150v-506q0 -45 18.5 -64t69.5 -24l39 -4 q16 0 16 -16v-39l-4 -4q-139 4 -219 4l-211 -4l-4 4v39q0 13 14 16l39 4q52 7 70 25t18 63v1006q0 95 -14 127.5t-47 32.5l-66 4q-12 0 -12 10l-4 49q63 5 150.5 22t125.5 32q27 0 27 -21q-6 -82 -6 -215z" />
<glyph unicode="i" horiz-adv-x="546" d="M176 1167q0 42 28.5 70.5t69.5 28.5t70 -28.5t29 -70.5q0 -40 -29 -68t-70 -28t-69.5 28t-28.5 68zM369 899q-7 -139 -7 -242v-510q0 -44 19.5 -63.5t67.5 -24.5l38 -4q19 -3 19 -16v-39l-4 -4q-133 4 -217 4l-215 -4l-4 4v39q0 13 16 16l39 4q52 7 70 25.5t18 62.5v510 q0 73 -10.5 98.5t-34.5 28.5l-88 9l-4 49q206 31 288 63q9 0 9 -6z" />
<glyph unicode="j" horiz-adv-x="557" d="M203 1167q0 42 28.5 70.5t69.5 28.5q40 0 69 -28.5t29 -70.5q0 -40 -29 -68t-69 -28q-41 0 -69.5 28t-28.5 68zM389 899v-674q0 -493 -149 -614q-35 -29 -75 -44.5t-60.5 -17.5t-51.5 -2q-34 0 -70 24.5t-36 66.5q0 25 21 43t40 18q25 0 44 -8t27 -15.5t19 -21.5 q23 -33 47 -33q17 0 30 12.5t22.5 40.5t16.5 56t11 75.5t6.5 81.5t3.5 92t1 89v88v501q0 74 -10.5 99.5t-35.5 27.5l-88 9l-4 49q198 30 283 63q8 0 8 -6z" />
<glyph unicode="k" horiz-adv-x="980" d="M180 1153q0 95 -14 127.5t-47 32.5l-66 4q-12 0 -12 10l-4 49q63 5 150.5 22t125.5 32q27 0 27 -21q-6 -82 -6 -215v-709q80 20 268 226q12 12 22.5 26.5t18.5 34.5t-8.5 34.5t-59.5 16.5q-16 0 -16 17v39l6 4q99 -4 170 -4l191 4l8 -4v-39q0 -13 -23 -17l-14 -2 q-46 -7 -103.5 -33t-93.5 -63l-155 -172q-8 -8 -8 -21q0 -15 10 -28l239 -354q26 -39 68 -62t86 -31l14 -2q19 -3 19 -16v-39l-4 -4q-105 4 -185 4l-127 -4l-6 4v39q0 42 -47 111l-149 210q-30 44 -55.5 59t-65.5 15v-287q0 -52 22 -69.5t70 -22.5q16 0 16 -16v-39l-4 -4 q-104 4 -184 4l-211 -4l-4 4v39q0 13 14 16l39 4q51 5 69.5 24t18.5 64v1006z" />
<glyph unicode="l" horiz-adv-x="532" d="M195 147v1006q0 95 -14.5 127.5t-47.5 32.5l-65 4q-13 0 -13 10l-4 49q64 5 151 21.5t126 32.5q26 0 26 -21q-6 -82 -6 -215v-1047q0 -45 18 -64t68 -24l49 -4q17 0 17 -16v-39l-4 -4q-150 4 -230 4l-221 -4l-2 4v39q0 16 14 16l49 4q51 5 70 24t19 64z" />
<glyph unicode="m" horiz-adv-x="1601" d="M362 899l-6 -172h6q81 85 155 128.5t163 43.5q83 0 136 -48.5t65 -121.5q160 170 336 170q53 0 91.5 -17t62 -44.5t37.5 -71t19 -89t5 -104.5v-426q0 -45 18.5 -64t69.5 -24l39 -4q16 0 16 -16v-39l-4 -4q-139 4 -219 4l-203 -4l-4 4v39q0 13 16 16l29 4q44 7 66 26.5 t22 61.5v471q0 183 -135 183q-62 0 -120.5 -32.5t-129.5 -111.5q2 -24 2 -82v-428q0 -42 21 -60.5t69 -27.5l25 -4q18 -4 18 -16v-39l-4 -4q-131 4 -211 4l-201 -4l-4 4v39q0 13 17 16l30 4q47 7 66.5 26t19.5 62v467q0 187 -135 187q-104 0 -244 -146v-508 q0 -42 21.5 -61.5t67.5 -26.5l28 -4q17 -4 17 -16v-39l-4 -4q-130 4 -209 4l-213 -4l-4 4v39q0 13 16 16l39 4q52 7 70 25.5t18 62.5v510q0 73 -10.5 98.5t-34.5 28.5l-88 9l-4 49q191 29 282 63q8 0 8 -6z" />
<glyph unicode="n" horiz-adv-x="1071" d="M340 899l-6 -182h6q91 107 168.5 144.5t165.5 37.5q67 0 112.5 -24t69.5 -70.5t33.5 -101t9.5 -128.5v-428q0 -44 19 -63.5t67 -24.5l39 -4q18 -4 18 -16v-39l-4 -4q-135 4 -221 4l-201 -4l-4 4v39q0 13 17 16l28 4q51 8 69.5 26.5t18.5 61.5v443q0 114 -27.5 162.5 t-105.5 48.5q-71 0 -134 -35t-138 -123v-496q0 -44 18.5 -62t69.5 -26l29 -4q16 -3 16 -16v-39l-4 -4q-127 4 -209 4l-213 -4l-4 4v39q0 13 16 16l39 4q51 5 69.5 24t18.5 64v510q0 73 -10.5 98.5t-34.5 28.5l-88 9l-4 49q196 30 283 63q8 0 8 -6z" />
<glyph unicode="o" horiz-adv-x="991" d="M74 420q0 215 112 347t312 132q88 0 160 -27.5t119.5 -73t80 -106t46.5 -124.5t14 -130q0 -80 -26.5 -158.5t-76 -146.5t-133.5 -110.5t-188 -42.5q-99 0 -181 39t-133 103t-78.5 141t-27.5 157zM475 831q-78 0 -131 -55.5t-74.5 -134.5t-21.5 -174q0 -50 9.5 -104.5 t31.5 -111.5t53 -102t79.5 -73.5t106.5 -28.5q39 0 73.5 13.5t68 47t53.5 101.5t20 164q0 223 -70 340.5t-198 117.5z" />
<glyph unicode="p" horiz-adv-x="1005" d="M317 637v-500q75 -88 170 -88q63 0 112.5 23.5t79.5 60.5t49.5 88t26.5 101t7 104q0 169 -67.5 274t-164.5 105q-56 0 -118.5 -45.5t-94.5 -122.5zM164 657q0 72 -11 98t-34 29l-88 9l-4 49q191 29 282 63q8 0 8 -6l-6 -164h6q108 164 269 164q96 0 176 -59t124 -155 t44 -204q0 -241 -144 -387q-113 -114 -286 -114q-99 0 -183 45v-355q0 -43 19.5 -62.5t66.5 -23.5l39 -4q19 -3 19 -16v-39l-4 -4q-142 4 -221 4l-211 -4l-5 4v39q0 13 17 16l39 4q49 4 68.5 23.5t19.5 62.5v987z" />
<glyph unicode="q" horiz-adv-x="1019" d="M702 688q-84 141 -210 141q-119 0 -181.5 -99t-62.5 -265q0 -89 19 -159.5t49 -113.5t69.5 -71.5t77.5 -39.5t76 -11q105 0 163 45v573zM702 -330v377q-74 -67 -213 -67q-85 0 -156 28t-117.5 73t-79.5 104t-47.5 119.5t-14.5 119.5q0 204 120 339.5t306 135.5 q163 0 256 -82l30 49q23 39 43 39q27 0 27 -51v-1184q0 -43 19 -62.5t69 -23.5l39 -4q16 0 16 -16v-39l-4 -4q-139 4 -219 4l-233 -4l-4 4v39q0 16 16 16l59 4q50 3 69 22.5t19 63.5z" />
<glyph unicode="r" horiz-adv-x="727" d="M199 147v510q0 72 -11 98t-34 29l-88 9l-5 49q198 30 283 63q8 0 8 -6l-6 -184h6q124 184 240 184q115 0 115 -94q0 -40 -24 -63t-65 -23q-48 0 -83 37q-19 18 -41 18q-18 0 -50 -28t-67 -78q-25 -32 -25 -72v-449q0 -45 20 -65t68 -23l60 -4q18 0 18 -16v-39l-4 -4 q-162 4 -242 4l-213 -4l-2 4v39q0 13 15 16l39 4q50 5 69 24.5t19 63.5z" />
<glyph unicode="s" horiz-adv-x="749" d="M88 287l55 2q19 -138 74 -193q21 -22 61 -40.5t91 -18.5q62 0 120 42t58 111q0 68 -46 116.5t-165 101.5q-64 28 -99 47.5t-66.5 49.5t-43.5 69t-12 96q0 101 81.5 165t204.5 64q127 0 226 -51q15 -84 22 -209l-55 -2q-15 59 -41.5 101.5t-56 62.5t-53 28.5t-42.5 8.5 q-161 0 -161 -138q0 -62 30.5 -97.5t114.5 -65.5q70 -26 118 -51t92.5 -60t66.5 -82t22 -106q0 -58 -23.5 -104.5t-58 -74.5t-78.5 -46.5t-81.5 -25.5t-69.5 -7q-100 0 -185 22q-14 4 -38 4q-16 0 -48 -6q0 110 -14 287z" />
<glyph unicode="t" horiz-adv-x="618" d="M336 799v-518q0 -101 14 -145t53 -44q73 0 148 58l37 -35q-120 -135 -256 -135q-150 0 -150 202v617h-133q-8 0 -8 8v63q0 9 6 9q98 0 134 56.5t36 180.5v39l119 41v-317h225q17 0 17 -13v-41q0 -12 -16 -19t-34 -7h-192z" />
<glyph unicode="u" horiz-adv-x="1058" d="M723 721q0 51 -18.5 71.5t-71.5 26.5l-33 4l-6 4v52l6 4q137 -4 203 -4l67 4q9 0 9 -4l-2 -158v-483q0 -76 9 -96t42 -23l98 -10l6 -48q-199 -35 -262 -86h-47l4 156h-4q-80 -86 -148.5 -118.5t-138.5 -32.5q-73 0 -125 23t-79.5 64t-39.5 87.5t-12 103.5v463 q0 51 -18.5 71.5t-71.5 26.5l-33 4l-6 4v52l6 4q138 -4 203 -4l68 4q8 0 8 -4l-2 -158v-434q0 -65 15 -110.5t40 -66.5t49 -29.5t51 -8.5q67 0 132 49q66 50 102 92v508z" />
<glyph unicode="v" horiz-adv-x="999" d="M659 823q-7 0 -11.5 4.5t-4.5 10.5v41l8 4q117 -4 193 -4l139 4l4 -4v-37q0 -15 -22 -19q-50 -5 -83.5 -27.5t-56.5 -78.5l-282 -694q-21 -48 -49 -48q-20 0 -31 9.5t-21 33.5l-278 707q-20 51 -51 71t-80 27q-21 4 -21 15v41l6 4q109 -4 179 -4l204 4l9 -4v-39 q0 -17 -19 -17l-35 -4q-45 -6 -51.5 -30t12.5 -60l177 -446l34 -95l35 88l182 449q25 59 9.5 76t-95.5 22z" />
<glyph unicode="w" horiz-adv-x="1507" d="M410 840q0 -17 -19 -17l-31 -2q-24 -1 -37 -8t-15 -21t0.5 -27.5t10.5 -35.5l216 -541l178 445l-37 92q-19 50 -51 71.5t-80 26.5q-21 4 -21 15v41l4 4q115 -4 187 -4l205 4l6 -4v-39q0 -17 -21 -17l-37 -2q-49 -3 -55 -25.5t16 -66.5l213 -541l213 531q8 16 10 31t-4 31 t-28 27t-59 13l-31 2q-7 0 -13 5t-6 10v41l6 4q136 -4 211 -4l152 4l2 -4v-39q0 -13 -25 -17q-48 -5 -82 -28t-59 -84l-278 -693q-19 -43 -47 -43q-31 0 -50 41l-204 512l-205 -508q-21 -45 -49 -45q-31 0 -50 41l-280 709q-21 55 -50 74t-79 24q-25 5 -25 15v41l4 4 q97 -4 187 -4l203 4l4 -6v-37z" />
<glyph unicode="x" horiz-adv-x="1003" d="M391 819q-47 -6 -48 -24.5t30 -61.5l125 -184q10 -19 20 -19q6 0 19 15l133 186q16 21 22.5 31.5t10.5 24.5t-6.5 21.5t-34.5 10.5l-33 4q-13 0 -13 15v39l7 6q96 -4 159 -4l166 4l2 -4v-39q0 -17 -24 -17q-57 -5 -92 -27.5t-91 -93.5l-172 -219q-6 -9 -6 -14q0 -7 6 -16 l185 -260q62 -88 96.5 -110.5t89.5 -27.5q17 -2 23 -4.5t6 -11.5v-39l-4 -4q-109 4 -179 4l-213 -4l-4 4v39q0 13 15 16l24 4q24 4 33.5 13t4.5 25.5t-15 32t-31 42.5l-119 164q-11 14 -18 14q-5 0 -19 -18l-129 -187q-12 -18 -17.5 -28t-9.5 -24t4.5 -22.5t29.5 -11.5 l28 -4q15 -3 15 -16v-39l-5 -4q-104 4 -172 4l-153 -4l-4 4v35q0 17 26 20q23 3 37.5 6.5t38.5 15.5t50 37t57 64l172 221q4 8 4 15t-6 16l-179 260q-47 69 -81.5 99t-83.5 34q-29 4 -29 15v39l4 6l162 -4l227 4l6 -6v-37q0 -13 -16 -17z" />
<glyph unicode="y" horiz-adv-x="1034" d="M420 840q0 -17 -23 -17q-42 -3 -61 -11t-25.5 -27.5t11.5 -53.5l225 -528l227 520q13 24 14.5 41.5t-4.5 27.5t-21.5 17t-30.5 9.5t-38 4.5q-7 0 -13.5 5t-6.5 10v39l4 6q121 -4 192 -4l142 4l6 -4v-39q0 -14 -23 -17q-50 -4 -83 -41.5t-62 -97.5q-129 -271 -363 -836 q-23 -56 -39.5 -91.5t-45 -84.5t-55 -77t-64.5 -49t-80 -21q-40 0 -79.5 23.5t-39.5 72.5q0 42 24 61t54 19q43 0 63 -29l20 -18q6 -6 16 -11t20 -5q33 0 157 305q17 31 17 63q0 27 -35 117l-258 600q-24 57 -49 76t-76 24q-21 3 -21 15v41l4 4q93 -4 152 -4q168 0 244 4 l4 -6v-37z" />
<glyph unicode="z" horiz-adv-x="851" d="M121 905q10 -2 34 -14t62 -12h416q26 0 57.5 3.5t53 7t24.5 3.5q25 0 25 -14q0 -16 -45 -86l-492 -723h272q83 0 122.5 36t80.5 127l27 60l53 -14q-43 -145 -66 -279h-630q-47 0 -47 25q0 13 18 41l504 743h-283q-52 0 -98 -44.5t-74 -148.5l-53 7q29 181 31 276q0 6 8 6 z" />
<glyph unicode="{" horiz-adv-x="559" d="M356 1151v-360q0 -139 -26 -195.5t-103 -89.5q83 -36 106 -101t23 -210v-326q0 -113 39 -185.5t105 -72.5v-45q-82 2 -133 16.5t-86.5 52t-49.5 101t-14 164.5v348q0 206 -147 241v31q147 43 147 238v377q0 174 62.5 241t220.5 72v-45q-33 -10 -56 -23.5t-44.5 -40.5 t-32.5 -74t-11 -114z" />
<glyph unicode="|" horiz-adv-x="419" d="M256 -477h-90v1907h90v-1907z" />
<glyph unicode="}" horiz-adv-x="559" d="M203 -139v360q0 139 26 195.5t103 89.5q-83 36 -106 101t-23 210v326q0 113 -38.5 185.5t-105.5 72.5v45q82 -2 133 -16.5t86.5 -52.5t49.5 -101t14 -164v-348q0 -206 147 -242v-30q-147 -43 -147 -238v-377q0 -174 -62.5 -241t-220.5 -72v45q33 9 56 23t44.5 40.5 t32.5 74t11 114.5z" />
<glyph unicode="~" horiz-adv-x="919" d="M53 428q21 104 96 183t166 79q22 0 51.5 -11.5t45.5 -20.5t55 -33l53 -33q18 -11 46.5 -23t49.5 -12q53 0 112.5 34t90.5 103l35 -12q-22 -77 -57 -130t-72.5 -76t-65 -31.5t-51.5 -8.5q-58 0 -153 68q-97 65 -152 65q-57 0 -123 -41t-100 -106z" />
<glyph unicode="&#xa1;" horiz-adv-x="466" d="M236 -469q-46 0 -80.5 39t-34.5 111q0 75 23 203t30 192q12 97 19 183.5t10 134t4 55.5q4 40 29 40q24 0 28 -26q1 -13 5.5 -78.5t11.5 -152t14 -156.5q7 -72 29 -194t22 -201q0 -75 -34.5 -112.5t-75.5 -37.5zM344 791q0 -45 -32 -77t-76 -32q-45 0 -77 32t-32 77 q0 44 32 76t77 32q44 0 76 -32t32 -76z" />
<glyph unicode="&#xa2;" d="M451 1184h69v-187q123 -1 192.5 -56t69.5 -132q0 -38 -20 -59t-51 -21t-54.5 17t-27.5 49q-2 22 -4.5 36t-10 34.5t-18 33t-30.5 23t-46 12.5v-680q10 -2 29 -2q116 0 207 129l32 -25q-56 -97 -120.5 -140t-147.5 -46v-195h-69v199q-148 19 -233 126t-85 271 q0 171 90.5 285t227.5 137v191zM451 276v652q-73 -24 -117.5 -107t-44.5 -209q0 -119 44.5 -208t117.5 -128z" />
<glyph unicode="&#xa3;" d="M147 578q-7 0 -9.5 2t-2.5 10v26q0 15 11.5 28t35.5 13h88v39q0 122 36.5 209t117.5 166q110 113 258 113q27 0 60.5 -8.5t64.5 -31t31 -54.5q0 -37 -22 -58.5t-58 -21.5q-20 0 -34.5 8.5t-35.5 28.5q-49 45 -96 45q-68 0 -117 -86t-49 -211v-138h242q14 0 14 -12v-43 q0 -11 -15 -17.5t-32 -6.5h-209q-2 -270 -141 -402h10q75 0 128.5 -14t77.5 -31t59 -31t77 -14q139 0 201 84l34 -20q-36 -78 -106.5 -124t-163.5 -46q-58 0 -103.5 18t-71 39t-70 39t-101.5 18q-82 0 -82 -47q0 -32 -22 -49.5t-56 -17.5q-28 0 -44.5 15t-16.5 38 q0 25 25.5 47.5t72.5 48.5q80 58 108.5 161.5t28.5 254.5v33h-123z" />
<glyph unicode="&#xa4;" d="M209 592q0 -116 66.5 -195.5t173.5 -79.5q104 0 170.5 80t66.5 193q0 114 -68.5 193t-164.5 79q-106 0 -175 -79.5t-69 -190.5zM449 231q-122 0 -222 74l-88 -108l-84 82l111 88q-80 95 -80 223q0 133 80 225l-107 84l76 82l94 -104q99 71 220 71q127 0 223 -76l94 113 l80 -84l-113 -90q78 -93 78 -221q0 -121 -76 -219l107 -90l-74 -78l-94 104q-101 -76 -225 -76z" />
<glyph unicode="&#xa5;" d="M96 469q-7 0 -8.5 2t-1.5 10v29q0 15 10.5 28t34.5 13h231l-206 424q-30 64 -61.5 95.5t-86.5 37.5q-18 0 -18 14v41l2 4q44 -4 182 -4q116 0 174 4l4 -4v-39q0 -13 -12 -16l-29 -4q-35 -4 -39 -18.5t17 -55.5l207 -428h4l186 428q18 48 12 58t-45 16l-24 4q-13 2 -13 14 v41l5 4q127 -4 153 -4l137 4l2 -4v-39q0 -5 -0.5 -7.5t-4.5 -5t-13 -3.5q-57 -5 -82 -22.5t-53 -79.5l-205 -455h250q14 0 14 -12v-43q0 -13 -14.5 -20t-32.5 -7h-242v-129h275q14 0 14 -12v-41q0 -13 -14.5 -20t-32.5 -7h-242v-108q0 -48 24.5 -68t86.5 -25l55 -4 q19 0 19 -16v-39l-4 -4q-174 4 -254 4l-260 -4l-4 4v39q0 16 16 16l53 4q61 5 87 27t26 66v108h-279q-7 0 -8.5 2t-1.5 10v27q0 15 10.5 28t34.5 13h244v129h-279z" />
<glyph unicode="&#xa6;" horiz-adv-x="419" d="M264 1380v-741h-98v741h98zM264 330v-742h-98v742h98z" />
<glyph unicode="&#xa7;" horiz-adv-x="954" d="M684 201q82 71 82 149q0 59 -26 113t-61.5 92t-94 78t-99.5 61l-103 52q-63 31 -83 42q-41 -23 -64.5 -61t-23.5 -84q0 -98 72.5 -186.5t179.5 -139.5q109 -50 221 -116zM500 1348q115 0 204 -75t89 -181q0 -32 -23 -55t-53 -23q-26 0 -44.5 12.5t-26 31.5t-10.5 32.5 t-3 23.5q0 9 3 30.5t3 33.5q0 41 -30.5 73.5t-100.5 32.5q-85 0 -143 -64t-58 -147q0 -67 37 -104t117 -74q43 -20 73.5 -35.5t75 -42t75.5 -51t65.5 -60t56 -72.5t35.5 -85t14 -100q0 -170 -135 -279q115 -81 115 -227q0 -128 -104 -213.5t-255 -85.5q-116 0 -213.5 79.5 t-97.5 188.5q0 32 23 55t51 23q46 0 66 -29t20 -53q0 -25 -3.5 -49t-3.5 -33q0 -34 48 -77.5t127 -43.5q75 0 132.5 48.5t57.5 133.5q0 70 -27 113q-26 42 -60.5 67t-109.5 62.5t-125 67.5q-142 85 -202 170t-60 198q0 83 45.5 148t114.5 102q-59 54 -76.5 98.5t-17.5 118.5 q0 69 41.5 141t121 123.5t171.5 51.5z" />
<glyph unicode="&#xa8;" horiz-adv-x="768" d="M440 1178q0 38 28 65t67 27q38 0 65 -27t27 -65q0 -39 -27 -67t-65 -28q-39 0 -67 28t-28 67zM113 1178q0 38 27 65t65 27t66 -27t28 -65q0 -39 -28 -67t-66 -28t-65 28t-27 67z" />
<glyph unicode="&#xa9;" horiz-adv-x="1296" d="M895 444q-35 -54 -96.5 -92.5t-139.5 -38.5q-142 0 -228.5 93.5t-86.5 222.5q0 119 86 212t223 93q81 0 133.5 -14.5t77.5 -14.5l25 -160l-55 -8q-8 43 -14.5 63.5t-24.5 45.5t-52 35t-88 10q-32 0 -63 -12t-62.5 -39.5t-51 -83t-19.5 -131.5q0 -110 53.5 -183t153.5 -73 q114 0 186 104zM649 47q-118 0 -225.5 46t-185 124t-123 185.5t-45.5 224.5t46 224t123.5 184.5t184.5 123t225 45.5t225 -45.5t184.5 -123t123 -184t45.5 -224.5t-45.5 -225.5t-123 -185t-184.5 -123.5t-225 -46zM649 1141q-141 0 -260 -69t-187.5 -187t-68.5 -258 q0 -139 68.5 -257.5t187.5 -187.5t260 -69q139 0 257.5 68.5t187.5 187t69 258.5t-68.5 258t-187 187t-258.5 69z" />
<glyph unicode="&#xaa;" horiz-adv-x="608" d="M385 1028q-128 -33 -175.5 -65t-47.5 -80q0 -36 21.5 -60t70.5 -24q31 0 60.5 15.5t70.5 51.5v162zM473 733q-35 0 -58 24.5t-28 55.5q-54 -47 -89 -63.5t-85 -16.5q-67 0 -112.5 39.5t-45.5 104.5q0 122 211 176l119 30q0 55 -10 91t-28 52t-34.5 21.5t-38.5 5.5 q-50 0 -80 -15t-30 -40q0 -17 4 -27q4 -8 4 -24t-13.5 -29.5t-39.5 -13.5q-23 0 -38 14t-15 37q0 58 71.5 104t141.5 46q42 0 77 -10t68.5 -34t52.5 -72.5t19 -117.5v-153q0 -117 28 -117q15 0 25 10l20 -33q-16 -17 -42.5 -31t-53.5 -14z" />
<glyph unicode="&#xab;" horiz-adv-x="1097" d="M958 879v-105q-137 -206 -292 -334q147 -110 292 -334v-104q-243 284 -446 399v78q222 160 446 400zM590 879v-105q-141 -206 -295 -334q150 -115 295 -334v-104q-249 287 -451 399v78q214 151 451 400z" />
<glyph unicode="&#xac;" horiz-adv-x="1146" d="M989 272v459h-940v90h1051v-549h-111z" />
<glyph unicode="&#xad;" horiz-adv-x="681" d="M561 483h-463q-13 0 -21.5 10.5t-8.5 24.5q0 25 16.5 50.5t34.5 25.5h469q28 0 28 -37q0 -19 -18 -46.5t-37 -27.5z" />
<glyph unicode="&#xae;" horiz-adv-x="1296" d="M854 762q0 -30 -12 -57t-29 -44.5t-34.5 -30.5t-29.5 -18l-12 -6l99 -168q36 -63 82 -63v-27q-28 -8 -48 -8q-90 0 -127 78l-98 162q-11 8 -55 8v-195q0 -9 2 -12.5t12 -3.5h25q22 0 22 -12v-23q-86 4 -114 4l-113 -4v25q0 10 20 10h25q9 0 12.5 3t3.5 13v457q0 22 -8 22 l-33 -2q-20 3 -20 13v22q72 10 235 10q55 0 95 -15t60.5 -39t30 -49t9.5 -50zM752 762q0 54 -27 86.5t-78 32.5q-43 0 -57 -7v-243q25 0 42 1.5t42 8.5t40 20t26.5 39t11.5 62zM649 47q-118 0 -225.5 46t-185 124t-123 185.5t-45.5 224.5t46 224t123.5 184.5t184.5 123 t225 45.5t225 -45.5t184.5 -123t123 -184t45.5 -224.5t-45.5 -225.5t-123 -185t-184.5 -123.5t-225 -46zM649 1141q-141 0 -260 -69t-187.5 -187t-68.5 -258q0 -139 68.5 -257.5t187.5 -187.5t260 -69q139 0 257.5 68.5t187.5 187t69 258.5t-68.5 258t-187 187t-258.5 69z " />
<glyph unicode="&#xaf;" horiz-adv-x="813" d="M645 1083h-500q-24 0 -24 31q0 20 13.5 40t31.5 20h500q14 0 21 -9t7 -20q0 -20 -15 -41t-34 -21z" />
<glyph unicode="&#xb0;" horiz-adv-x="546" d="M410 1073q0 58 -35.5 104t-100.5 46q-63 0 -100 -45t-37 -105q0 -57 37.5 -100t99.5 -43q60 0 98 44t38 99zM70 1075q0 86 60 145.5t144 59.5q85 0 144 -59.5t59 -145.5q0 -84 -59 -143.5t-144 -59.5q-84 0 -144 59.5t-60 143.5z" />
<glyph unicode="&#xb1;" horiz-adv-x="1079" d="M592 700h352v-100h-352v-356h-105v356h-352v100h352v357h105v-357zM944 139v-100h-809v100h809z" />
<glyph unicode="&#xb2;" horiz-adv-x="628" d="M150 1202q-19 0 -36.5 15t-17.5 34q0 22 12 47.5t36.5 51t69 42.5t101.5 17t104 -14t82.5 -54t35.5 -102q0 -66 -44.5 -121.5t-138.5 -122.5q-135 -96 -135 -184h166q23 0 41.5 12t34 36.5t23.5 41.5t20 47l49 -10q-30 -101 -39 -193h-422q0 68 50 131t137 130 q52 41 78 69t42.5 68t16.5 94q0 64 -35.5 93.5t-73.5 29.5q-60 0 -85 -17.5t-25 -42.5q0 -9 5 -25t5 -24q0 -22 -19.5 -35.5t-37.5 -13.5z" />
<glyph unicode="&#xb3;" horiz-adv-x="628" d="M385 1278q0 43 -24 62.5t-58 19.5q-38 0 -74.5 -18.5t-38.5 -53.5q-1 -17 -4 -27t-15 -21t-34 -11q-18 0 -29.5 8.5t-14.5 16t-3 12.5q0 15 13 37t38.5 47t75 42t111.5 17q80 0 127 -32t47 -89q0 -81 -105 -139q60 -5 112 -52t52 -128q0 -104 -86.5 -170t-212.5 -66 q-62 0 -122 23t-60 53q0 15 16 28t33 13q30 0 53 -29q16 -18 37 -27.5t66 -9.5q18 0 41 7t50.5 23.5t45.5 52.5t18 85q0 33 -12 58t-29.5 38.5t-41 22t-41 10.5t-35.5 2q-9 0 -41 -4l-4 49q69 10 109 49t40 101z" />
<glyph unicode="&#xb4;" horiz-adv-x="698" d="M358 1440q14 4 29 4q61 0 100 -39q12 -7 13 -8l6 -23l-236 -223q-40 -41 -59 -41q-11 0 -20 8t-9 19q0 24 13 45z" />
<glyph unicode="&#xb5;" horiz-adv-x="995" d="M207 -479q-32 0 -71.5 38.5t-39.5 94.5q0 49 16.5 155.5t16.5 174.5q0 27 -9 126t-9 164v385q0 26 -5.5 81t-10.5 97l-5 42q27 0 90 9t78 11q6 -131 6 -197v-401q0 -229 142 -229q79 0 150 38.5t108 92.5v676q29 0 85.5 9.5t67.5 10.5v-645q0 -123 11 -150q10 -28 42 -28 q36 0 70 86l49 -23q-32 -84 -71.5 -121.5t-114.5 -37.5q-58 0 -98.5 41.5t-40.5 101.5q-130 -143 -297 -143q-34 0 -67.5 13.5t-49.5 33.5q-9 0 -17 -6t-8 -13q0 -72 33 -199t33 -165q0 -60 -23.5 -91.5t-60.5 -31.5z" />
<glyph unicode="&#xb6;" horiz-adv-x="1232" d="M1020 -295q0 -58 7.5 -84t23 -34t51.5 -9h59q13 0 13 -14v-43h-674v43q0 14 12 14h59q51 1 65.5 25t14.5 104v758q-50 -25 -157 -25q-55 0 -111 12.5t-116.5 45t-106.5 82t-75.5 132.5t-29.5 187q0 193 109 308.5t307 115.5q89 0 204 -5t130 -5l141 6l228 4v-43 q0 -14 -13 -14h-59q-53 0 -67.5 -26t-14.5 -101v-1434zM834 -424q41 0 53 28t12 99v1436q0 42 -4 68t-14 37t-18 14t-23 4q-19 0 -32.5 -8t-20 -18.5t-10.5 -30t-4.5 -34t-0.5 -38.5v-1426q0 -131 62 -131z" />
<glyph unicode="&#xb7;" horiz-adv-x="512" d="M256 418q-49 0 -80 32.5t-31 77.5q0 44 33.5 77.5t77.5 33.5q42 0 76.5 -33t34.5 -78t-32 -77.5t-79 -32.5z" />
<glyph unicode="&#xb8;" horiz-adv-x="1107" d="M600 -164q-52 0 -92 -12l-12 12l79 178h70l-49 -118q24 6 53 6q63 0 104.5 -35t41.5 -92q0 -65 -62.5 -105.5t-157.5 -40.5q-70 0 -151 35l20 45q78 -28 119 -28q50 0 86.5 22t36.5 61q0 32 -25 52t-61 20z" />
<glyph unicode="&#xb9;" horiz-adv-x="628" d="M276 1272q-19 0 -56.5 -11t-59.5 -22l-21 55q127 46 240 115h33v-530q0 -32 15.5 -53t35.5 -23l57 -4q12 0 12 -11v-43q-106 3 -176 3l-200 -3v43q0 11 14 11l74 4q24 2 42.5 23t18.5 53v307q0 51 -5.5 68.5t-23.5 17.5z" />
<glyph unicode="&#xba;" horiz-adv-x="714" d="M80 879q0 131 75 205.5t207 74.5q73 0 127.5 -22t86 -61t46.5 -85t15 -100q0 -113 -74 -191.5t-211 -78.5q-114 0 -193 74t-79 184zM350 1108q-73 0 -112 -60t-39 -149q0 -85 45.5 -153t130.5 -68q23 0 46 8t46.5 26.5t38 56t14.5 89.5q0 121 -45.5 185.5t-124.5 64.5z " />
<glyph unicode="&#xbb;" horiz-adv-x="1097" d="M98 2v104q134 203 293 334q-146 111 -293 334v105q244 -284 447 -400v-78q-216 -153 -447 -399zM467 2v104q140 207 295 334q-150 116 -295 334v105q250 -288 451 -400v-78q-213 -149 -451 -399z" />
<glyph unicode="&#xbc;" horiz-adv-x="1351" d="M1141 1231l84 -17l-938 -1341l-86 16zM1178 322v-216h116l-12 -69h-104v-98q0 -14 4.5 -23t15 -14t19 -7t26.5 -4l33 -4q10 0 10 -8v-45q-94 2 -156 2l-153 -2v45q0 5 10 8l31 4q22 3 33.5 6.5t21.5 14t10 27.5v98h-295l-8 24l316 447l63 -21q-51 -78 -149.5 -215.5 t-116.5 -165.5h190v158q0 12 15 35q33 43 53 43q27 0 27 -20zM270 1171q-19 0 -56.5 -10.5t-59.5 -21.5l-21 55q76 28 125.5 51.5t114.5 63.5h33v-531q0 -32 15.5 -53t35.5 -23l57 -4q12 0 12 -10v-43q-106 2 -176 2l-200 -2v43q0 10 14 10l74 4q24 2 42.5 23t18.5 53v307 q0 51 -5.5 68.5t-23.5 17.5z" />
<glyph unicode="&#xbd;" horiz-adv-x="1351" d="M1090 1231l86 -17l-940 -1341l-84 16zM883 295q-20 0 -37 14.5t-17 34.5q0 52 56 105t164 53q57 0 103.5 -14t82 -54t35.5 -102q0 -66 -44.5 -121.5t-138.5 -122.5q-135 -96 -135 -184h166q23 0 41.5 12t34 36.5t23.5 41.5t20 47l49 -10q-30 -104 -39 -193h-422 q0 68 50 131t137 129q77 62 107 108t30 124q0 64 -35.5 93.5t-73.5 29.5q-60 0 -85 -17.5t-25 -42.5q0 -9 5 -25t5 -24q0 -22 -19.5 -35.5t-37.5 -13.5zM274 1171q-19 0 -56.5 -10.5t-59.5 -21.5l-21 55q76 28 125.5 51.5t114.5 63.5h33v-531q0 -32 15.5 -53t35.5 -23l57 -4 q12 0 12 -10v-43q-106 2 -176 2l-200 -2v43q0 10 14 10l74 4q24 2 42.5 23t18.5 53v307q0 51 -5.5 68.5t-23.5 17.5z" />
<glyph unicode="&#xbe;" horiz-adv-x="1351" d="M1151 1231l84 -17l-938 -1341l-86 16zM381 1174q0 43 -24 62t-58 19q-38 0 -75 -18.5t-38 -52.5q-1 -17 -4 -27.5t-15 -21.5t-34 -11q-18 0 -29.5 8.5t-14.5 16t-3 12.5q0 15 13 37.5t38.5 47.5t74.5 42t112 17q80 0 127 -32t47 -89q0 -82 -105 -140q61 -5 112.5 -52 t51.5 -128q0 -104 -86.5 -169.5t-212.5 -65.5q-62 0 -122 23t-60 53q0 15 16 27.5t33 12.5q29 0 53 -28q15 -19 36.5 -28t66.5 -9q14 0 31 3.5t39.5 15t41 29t31 49t12.5 71.5q0 33 -12 58t-29.5 38.5t-41 22t-41.5 10.5t-36 2q-8 0 -40 -4l-5 49q69 9 109.5 48.5 t40.5 101.5zM1186 326v-215h117l-13 -70h-104v-98q0 -18 9.5 -28.5t21 -13.5t34.5 -5l33 -5q10 0 10 -8v-45q-94 2 -155 2l-154 -2v45q0 5 10 8l31 5q21 2 33.5 5.5t22.5 14t10 27.5v98h-295l-9 25l316 446l63 -20q-52 -81 -151 -219t-115 -162h191v157q0 14 14 35 q32 43 53 43q27 0 27 -20z" />
<glyph unicode="&#xbf;" horiz-adv-x="829" d="M633 -293q0 38 -12 53q-13 16 -13 50q0 33 24 52t56 19t58 -20t26 -68q0 -100 -104 -184q-94 -80 -254 -80q-156 0 -247 84.5t-91 224.5q0 47 14.5 90t33 72.5t52.5 63t56 50.5l61 46q87 65 106 102q37 70 37 150v90q0 20 27 20q26 0 26 -20v-94q0 -43 -3.5 -74 t-15.5 -76.5t-41.5 -90.5t-76.5 -89q-66 -61 -94.5 -112t-28.5 -120q0 -102 59.5 -179t145.5 -77t142.5 35t56.5 82zM571 791q0 -45 -32 -77t-76 -32q-45 0 -77 32t-32 77q0 44 32 76t77 32q44 0 76 -32t32 -76z" />
<glyph unicode="&#xc0;" horiz-adv-x="1423" d="M539 580h356l-201 546h-2l-205 -520q-6 -14 9 -20t43 -6zM311 162q-16 -40 5.5 -69t76.5 -34l60 -4q16 0 16 -16v-39l-4 -4q-223 4 -272 4l-185 -4l-4 4v39q0 16 16 16q75 5 117 33.5t82 120.5l455 1065q14 32 33.5 53t37.5 21q16 0 28 -14.5t26 -47.5l420 -1110 q21 -59 55 -85.5t96 -33.5l23 -2q20 0 20 -16v-39l-6 -4q-158 4 -238 4l-272 -4l-2 4v39q0 16 14 16l58 4q59 5 80 25.5t6 62.5l-125 347h-426q-36 0 -50 -7.5t-22 -27.5zM582 1675l247 -172q31 -22 31 -43q0 -30 -31 -30t-88 24l-315 129z" />
<glyph unicode="&#xc1;" horiz-adv-x="1423" d="M539 580h356l-201 546h-2l-205 -520q-6 -14 9 -20t43 -6zM311 162q-16 -40 5.5 -69t76.5 -34l60 -4q16 0 16 -16v-39l-4 -4q-223 4 -272 4l-185 -4l-4 4v39q0 16 16 16q75 5 117 33.5t82 120.5l455 1065q14 32 33.5 53t37.5 21q16 0 28 -14.5t26 -47.5l420 -1110 q21 -59 55 -85.5t96 -33.5l23 -2q20 0 20 -16v-39l-6 -4q-158 4 -238 4l-272 -4l-2 4v39q0 16 14 16l58 4q59 5 80 25.5t6 62.5l-125 347h-426q-36 0 -50 -7.5t-22 -27.5zM854 1679l127 -106l-295 -119q-57 -24 -88 -24q-29 0 -29 30q0 22 31 43z" />
<glyph unicode="&#xc2;" horiz-adv-x="1423" d="M539 580h356l-201 546h-2l-205 -520q-6 -14 9 -20t43 -6zM311 162q-16 -40 5.5 -69t76.5 -34l60 -4q16 0 16 -16v-39l-4 -4q-223 4 -272 4l-185 -4l-4 4v39q0 16 16 16q75 5 117 33.5t82 120.5l455 1065q14 32 33.5 53t37.5 21q16 0 28 -14.5t26 -47.5l420 -1110 q21 -59 55 -85.5t96 -33.5l23 -2q20 0 20 -16v-39l-6 -4q-158 4 -238 4l-272 -4l-2 4v39q0 16 14 16l58 4q59 5 80 25.5t6 62.5l-125 347h-426q-36 0 -50 -7.5t-22 -27.5zM776 1649q87 -104 207 -193l-33 -43q-124 58 -217 127q-104 -76 -219 -127l-29 43q90 68 203 193h88z " />
<glyph unicode="&#xc3;" horiz-adv-x="1423" d="M539 580h356l-201 546h-2l-205 -520q-6 -14 9 -20t43 -6zM311 162q-16 -40 5.5 -69t76.5 -34l60 -4q16 0 16 -16v-39l-4 -4q-223 4 -272 4l-185 -4l-4 4v39q0 16 16 16q75 5 117 33.5t82 120.5l455 1065q14 32 33.5 53t37.5 21q16 0 28 -14.5t26 -47.5l420 -1110 q21 -59 55 -85.5t96 -33.5l23 -2q20 0 20 -16v-39l-6 -4q-158 4 -238 4l-272 -4l-2 4v39q0 16 14 16l58 4q59 5 80 25.5t6 62.5l-125 347h-426q-36 0 -50 -7.5t-22 -27.5zM864 1524q36 0 59 22t44 84l49 -12q-37 -184 -178 -184q-52 0 -131 53q-76 45 -111 45q-39 0 -62 -23 t-38 -75l-50 10q22 93 60.5 137.5t103.5 44.5t148 -57q59 -45 106 -45z" />
<glyph unicode="&#xc4;" horiz-adv-x="1423" d="M539 580h356l-201 546h-2l-205 -520q-6 -14 9 -20t43 -6zM311 162q-16 -40 5.5 -69t76.5 -34l60 -4q16 0 16 -16v-39l-4 -4q-223 4 -272 4l-185 -4l-4 4v39q0 16 16 16q75 5 117 33.5t82 120.5l455 1065q14 32 33.5 53t37.5 21q16 0 28 -14.5t26 -47.5l420 -1110 q21 -59 55 -85.5t96 -33.5l23 -2q20 0 20 -16v-39l-6 -4q-158 4 -238 4l-272 -4l-2 4v39q0 16 14 16l58 4q59 5 80 25.5t6 62.5l-125 347h-426q-36 0 -50 -7.5t-22 -27.5zM860 1405q0 37 28 64.5t66 27.5q39 0 66 -27.5t27 -64.5q0 -39 -27 -66.5t-66 -27.5q-38 0 -66 28 t-28 66zM406 1403q0 38 28 65t66 27t65 -27t27 -65t-27 -65t-65 -27t-66 27t-28 65z" />
<glyph unicode="&#xc5;" horiz-adv-x="1423" d="M530 580h367l-203 546l-213 -510q-4 -16 -4 -18q0 -18 53 -18zM559 1462q0 69 51 119.5t123 50.5q71 0 123.5 -50t52.5 -120q0 -54 -32.5 -98t-83.5 -61l6 -17l420 -1110q22 -62 56.5 -91.5t94.5 -29.5h23q20 0 20 -16v-39l-6 -4q-158 4 -238 4l-272 -4l-2 4v39 q0 16 14 16h58q46 0 71 16t25 42q0 16 -6 34l-131 353h-432q-35 0 -51 -8.5t-23 -26.5l-133 -318q-8 -19 -8 -38q0 -25 24 -39.5t70 -14.5h59q6 0 11.5 -4.5t5.5 -11.5v-39l-5 -4q-202 4 -251 4l-185 -4l-4 4v39q0 16 16 16h25q60 0 93.5 27t56.5 84l479 1120q2 6 6 14 q-53 18 -87 62t-34 100zM733 1577q-45 0 -76.5 -34.5t-31.5 -80.5q0 -44 31 -79t77 -35q48 0 79.5 34.5t31.5 79.5q0 48 -32.5 81.5t-78.5 33.5z" />
<glyph unicode="&#xc6;" horiz-adv-x="1771" d="M555 625h324v553q0 42 -11 47zM965 0l-265 -4l-4 4v37q0 18 17 18l53 4q63 5 88 26.5t25 66.5v393h-365l-211 -406q-29 -55 -23 -66t62 -14l59 -4q6 0 9.5 -4t3.5 -8v-43l-2 -4q-140 4 -219 4l-185 -4l-4 4v39q0 13 21 16l47 4q57 5 79 24t60 91l528 1008q17 34 -3 56 t-54 24l-64 4q-16 0 -16 14v41l4 2l361 -2h157h455q11 -124 43 -315l-59 -11l-19 59q-7 21 -20 51t-24 46.5t-28.5 36t-37.5 29t-47 16t-60 6.5h-205q-35 0 -54 -26t-19 -64v-406h208q51 0 72 21.5t33 69.5l12 61q4 16 17 16h45q6 0 6 -8q-17 -145 -17 -194q0 -48 17 -197 l-4 -6h-47q-15 0 -19 14l-10 64q-10 46 -32.5 68t-72.5 22h-208v-522q0 -40 18.5 -56t54.5 -16h269q56 0 99.5 21t73 61t49 84.5t36.5 105.5l61 -10q-44 -212 -53 -342h-692z" />
<glyph unicode="&#xc7;" horiz-adv-x="1318" d="M733 -172q-52 0 -92 -12l-12 12l67 152q-152 6 -273 65t-195 153.5t-113 209t-39 237.5q0 148 54.5 280t144.5 224t209 145.5t245 53.5q86 0 160 -13.5t115.5 -30t89 -32t84.5 -17.5q10 -142 45 -317l-62 -8q-103 342 -454 342q-51 0 -109.5 -20.5t-120 -67.5t-111 -113 t-81 -167t-31.5 -220q0 -91 18 -179.5t56.5 -168.5t93 -140.5t133 -96.5t170.5 -36q143 0 255 52.5t220 171.5l47 -31q-194 -255 -479 -274l-39 -95q28 7 53 7q63 0 104.5 -35t41.5 -92q0 -66 -62 -106t-157 -40q-74 0 -152 35l21 45q72 -26 101 -28q8 -1 17 -1 q50 0 86.5 22.5t36.5 61.5q0 32 -25 52t-61 20z" />
<glyph unicode="&#xc8;" horiz-adv-x="1124" d="M911 1323q3 -14 20.5 -126.5t24.5 -170.5l-59 -10q-16 49 -27.5 78t-30.5 60.5t-41.5 47.5t-56.5 26.5t-79 10.5h-216q-38 0 -55.5 -14.5t-17.5 -50.5v-435h260q52 0 74.5 20.5t27.5 65.5l6 52q0 6 4.5 11t10.5 5h45q8 0 8 -8q-8 -109 -8 -176l8 -187l-6 -6h-47 q-8 0 -12.5 4.5t-4.5 9.5l-4 54q-3 44 -26 61t-76 17h-260v-515q0 -39 18 -53t55 -14h279q203 0 276 268l64 -10l-76 -342q-164 4 -262 4h-436l-262 -4l-4 4v41q0 14 16 14l61 4q59 5 82 25t23 63v1027q0 46 -22.5 64.5t-82.5 23.5l-61 4q-16 0 -16 14v41l4 2q207 -2 262 -2 h516q49 0 96 8q8 0 8 -6zM502 1673l248 -172q30 -22 30 -43q0 -31 -30 -31q-28 0 -88 25l-316 129z" />
<glyph unicode="&#xc9;" horiz-adv-x="1124" d="M911 1323q3 -14 20.5 -126.5t24.5 -170.5l-59 -10q-16 49 -27.5 78t-30.5 60.5t-41.5 47.5t-56.5 26.5t-79 10.5h-216q-38 0 -55.5 -14.5t-17.5 -50.5v-435h260q52 0 74.5 20.5t27.5 65.5l6 52q0 6 4.5 11t10.5 5h45q8 0 8 -8q-8 -109 -8 -176l8 -187l-6 -6h-47 q-8 0 -12.5 4.5t-4.5 9.5l-4 54q-3 44 -26 61t-76 17h-260v-515q0 -39 18 -53t55 -14h279q203 0 276 268l64 -10l-76 -342q-164 4 -262 4h-436l-262 -4l-4 4v41q0 14 16 14l61 4q59 5 82 25t23 63v1027q0 46 -22.5 64.5t-82.5 23.5l-61 4q-16 0 -16 14v41l4 2q207 -2 262 -2 h516q49 0 96 8q8 0 8 -6zM717 1679l127 -106l-295 -119q-57 -24 -88 -24q-29 0 -29 30q0 22 31 43z" />
<glyph unicode="&#xca;" horiz-adv-x="1124" d="M911 1323q3 -14 20.5 -126.5t24.5 -170.5l-59 -10q-16 49 -27.5 78t-30.5 60.5t-41.5 47.5t-56.5 26.5t-79 10.5h-216q-38 0 -55.5 -14.5t-17.5 -50.5v-435h260q52 0 74.5 20.5t27.5 65.5l6 52q0 6 4.5 11t10.5 5h45q8 0 8 -8q-8 -109 -8 -176l8 -187l-6 -6h-47 q-8 0 -12.5 4.5t-4.5 9.5l-4 54q-3 44 -26 61t-76 17h-260v-515q0 -39 18 -53t55 -14h279q203 0 276 268l64 -10l-76 -342q-164 4 -262 4h-436l-262 -4l-4 4v41q0 14 16 14l61 4q59 5 82 25t23 63v1027q0 46 -22.5 64.5t-82.5 23.5l-61 4q-16 0 -16 14v41l4 2q207 -2 262 -2 h516q49 0 96 8q8 0 8 -6zM649 1649q87 -104 207 -193l-33 -43q-124 58 -217 127q-104 -76 -219 -127l-29 43q90 68 203 193h88z" />
<glyph unicode="&#xcb;" horiz-adv-x="1124" d="M911 1323q3 -14 20.5 -126.5t24.5 -170.5l-59 -10q-16 49 -27.5 78t-30.5 60.5t-41.5 47.5t-56.5 26.5t-79 10.5h-216q-38 0 -55.5 -14.5t-17.5 -50.5v-435h260q52 0 74.5 20.5t27.5 65.5l6 52q0 6 4.5 11t10.5 5h45q8 0 8 -8q-8 -109 -8 -176l8 -187l-6 -6h-47 q-8 0 -12.5 4.5t-4.5 9.5l-4 54q-3 44 -26 61t-76 17h-260v-515q0 -39 18 -53t55 -14h279q203 0 276 268l64 -10l-76 -342q-164 4 -262 4h-436l-262 -4l-4 4v41q0 14 16 14l61 4q59 5 82 25t23 63v1027q0 46 -22.5 64.5t-82.5 23.5l-61 4q-16 0 -16 14v41l4 2q207 -2 262 -2 h516q49 0 96 8q8 0 8 -6zM690 1538q0 37 27.5 64.5t64.5 27.5q39 0 67 -27.5t28 -64.5q0 -38 -28 -66t-67 -28q-37 0 -64.5 28t-27.5 66zM303 1536q0 38 27 65t65 27t65 -27t27 -65t-27 -65t-65 -27t-65 27t-27 65z" />
<glyph unicode="&#xcc;" horiz-adv-x="600" d="M383 1176v-1031q0 -45 25 -63t88 -23l53 -4q16 0 16 -16v-39l-4 -4q-98 4 -260 4q-160 0 -260 -4l-4 4v39q0 16 14 16l55 4q64 5 87.5 24t23.5 62v1031q0 45 -24.5 63t-86.5 23l-55 4q-16 0 -16 16v39l4 2q102 -2 260 -2q162 0 262 2l4 -2v-39q0 -16 -16 -16l-53 -4 q-62 -5 -87.5 -24.5t-25.5 -61.5zM203 1673l248 -172q30 -22 30 -43q0 -31 -30 -31q-28 0 -89 25l-315 129z" />
<glyph unicode="&#xcd;" horiz-adv-x="600" d="M383 1176v-1031q0 -45 25 -63t88 -23l53 -4q16 0 16 -16v-39l-4 -4q-98 4 -260 4q-160 0 -260 -4l-4 4v39q0 16 14 16l55 4q64 5 87.5 24t23.5 62v1031q0 45 -24.5 63t-86.5 23l-55 4q-16 0 -16 16v39l4 2q102 -2 260 -2q162 0 262 2l4 -2v-39q0 -16 -16 -16l-53 -4 q-62 -5 -87.5 -24.5t-25.5 -61.5zM430 1677l127 -106l-295 -119q-60 -25 -88 -25q-29 0 -29 31q0 22 31 43z" />
<glyph unicode="&#xce;" horiz-adv-x="600" d="M383 1176v-1031q0 -45 25 -63t88 -23l53 -4q16 0 16 -16v-39l-4 -4q-98 4 -260 4q-160 0 -260 -4l-4 4v39q0 16 14 16l55 4q64 5 87.5 24t23.5 62v1031q0 45 -24.5 63t-86.5 23l-55 4q-16 0 -16 16v39l4 2q102 -2 260 -2q162 0 262 2l4 -2v-39q0 -16 -16 -16l-53 -4 q-62 -5 -87.5 -24.5t-25.5 -61.5zM342 1649q83 -101 207 -193l-33 -43q-124 58 -217 127q-104 -76 -219 -127l-29 43q84 63 203 193h88z" />
<glyph unicode="&#xcf;" horiz-adv-x="600" d="M383 1176v-1031q0 -45 25 -63t88 -23l53 -4q16 0 16 -16v-39l-4 -4q-98 4 -260 4q-160 0 -260 -4l-4 4v39q0 16 14 16l55 4q64 5 87.5 24t23.5 62v1031q0 45 -24.5 63t-86.5 23l-55 4q-16 0 -16 16v39l4 2q102 -2 260 -2q162 0 262 2l4 -2v-39q0 -16 -16 -16l-53 -4 q-62 -5 -87.5 -24.5t-25.5 -61.5zM401 1536q0 37 28 64.5t65 27.5q38 0 66 -27.5t28 -64.5q0 -38 -28 -66t-66 -28t-65.5 28t-27.5 66zM14 1534q0 38 27 65t65 27q39 0 66 -27t27 -65t-27 -65t-66 -27q-38 0 -65 27t-27 65z" />
<glyph unicode="&#xd0;" horiz-adv-x="1427" d="M35 37q0 18 14 18l62 4q55 3 80.5 24t25.5 69v436h-182v80h182v503q0 54 -20 70t-86 21l-58 4q-18 0 -18 16v37l4 4q50 0 129 -1t129 -1q65 0 168 1t168 1q193 0 355.5 -93t256.5 -252t94 -347q0 -105 -22 -193.5t-60 -153t-91 -115t-111.5 -82.5t-126 -53t-130.5 -29.5 t-128 -8.5q-114 0 -211.5 2t-161.5 2q-168 0 -258 -4l-4 4v37zM383 147q0 -35 14.5 -50.5t61 -23t147.5 -7.5q92 0 168 13.5t148 49t121 92.5t78.5 148.5t29.5 212.5q0 99 -19 191.5t-64 180.5t-112 153.5t-170 105.5t-231 40q-44 0 -70.5 -2t-52 -9.5t-37.5 -23.5t-12 -42 v-508h207v-80h-207v-441z" />
<glyph unicode="&#xd1;" horiz-adv-x="1423" d="M854 1520q36 0 59 22t43 84l50 -12q-37 -184 -179 -184q-52 0 -131 53q-76 45 -110 45q-39 0 -62 -23t-39 -75l-49 10q22 93 60.5 137.5t103.5 44.5t148 -57q58 -45 106 -45zM1235 1141v-1098q0 -59 -43 -59q-51 3 -82 45l-715 903q-52 67 -69 67q-12 0 -16.5 -22.5 t-4.5 -77.5v-719q0 -50 27.5 -83t85.5 -38l53 -4q16 0 16 -16v-39l-4 -4q-145 4 -227 4l-229 -4l-4 4v37q0 15 26 18l53 4q58 5 84.5 39.5t26.5 81.5v946q-10 45 -51.5 90.5t-87.5 49.5q-35 4 -35 16v37l6 4h279l702 -907q74 -96 89 -107q8 -6 13 -6q10 0 12.5 13.5 t2.5 48.5v776q0 48 -26 82t-85 39l-53 4q-9 0 -19 4.5t-10 11.5v39l8 2q154 -2 228 -2l227 2l4 -2v-39q0 -16 -16 -16l-55 -4q-57 -5 -84 -38t-27 -83z" />
<glyph unicode="&#xd2;" horiz-adv-x="1429" d="M684 1278q-61 0 -119.5 -21.5t-114 -69.5t-97 -117t-66.5 -172.5t-25 -227.5q0 -143 42 -262.5t112 -196.5t157.5 -119.5t180.5 -42.5q179 0 296 158.5t117 427.5q0 312 -130 477.5t-353 165.5zM1356 674q0 -310 -176 -502t-467 -192q-177 0 -321 78.5t-230 229 t-86 347.5q0 198 81.5 361.5t227.5 257.5t326 94q137 0 256 -49t205 -136t135 -213.5t49 -275.5zM623 1677l247 -172q31 -22 31 -43q0 -30 -31 -30t-88 24l-315 129z" />
<glyph unicode="&#xd3;" horiz-adv-x="1429" d="M684 1278q-61 0 -119.5 -21.5t-114 -69.5t-97 -117t-66.5 -172.5t-25 -227.5q0 -143 42 -262.5t112 -196.5t157.5 -119.5t180.5 -42.5q179 0 296 158.5t117 427.5q0 312 -130 477.5t-353 165.5zM1356 674q0 -310 -176 -502t-467 -192q-177 0 -321 78.5t-230 229 t-86 347.5q0 198 81.5 361.5t227.5 257.5t326 94q137 0 256 -49t205 -136t135 -213.5t49 -275.5zM793 1679l127 -106l-295 -119q-57 -24 -88 -24q-29 0 -29 30q0 22 31 43z" />
<glyph unicode="&#xd4;" horiz-adv-x="1429" d="M684 1278q-61 0 -119.5 -21.5t-114 -69.5t-97 -117t-66.5 -172.5t-25 -227.5q0 -143 42 -262.5t112 -196.5t157.5 -119.5t180.5 -42.5q179 0 296 158.5t117 427.5q0 312 -130 477.5t-353 165.5zM1356 674q0 -310 -176 -502t-467 -192q-177 0 -321 78.5t-230 229 t-86 347.5q0 198 81.5 361.5t227.5 257.5t326 94q137 0 256 -49t205 -136t135 -213.5t49 -275.5zM754 1649q83 -101 207 -193l-33 -43q-128 59 -217 127q-102 -74 -219 -127l-29 43q84 63 203 193h88z" />
<glyph unicode="&#xd5;" horiz-adv-x="1429" d="M684 1278q-61 0 -119.5 -21.5t-114 -69.5t-97 -117t-66.5 -172.5t-25 -227.5q0 -143 42 -262.5t112 -196.5t157.5 -119.5t180.5 -42.5q179 0 296 158.5t117 427.5q0 312 -130 477.5t-353 165.5zM1356 674q0 -310 -176 -502t-467 -192q-177 0 -321 78.5t-230 229 t-86 347.5q0 198 81.5 361.5t227.5 257.5t326 94q137 0 256 -49t205 -136t135 -213.5t49 -275.5zM840 1520q36 0 58.5 22t43.5 84l49 -12q-36 -184 -178 -184q-52 0 -131 53q-76 45 -111 45q-39 0 -61.5 -23t-38.5 -75l-49 10q22 93 60.5 137.5t103.5 44.5q64 0 147 -57 q59 -45 107 -45z" />
<glyph unicode="&#xd6;" horiz-adv-x="1429" d="M684 1278q-61 0 -119.5 -21.5t-114 -69.5t-97 -117t-66.5 -172.5t-25 -227.5q0 -143 42 -262.5t112 -196.5t157.5 -119.5t180.5 -42.5q179 0 296 158.5t117 427.5q0 312 -130 477.5t-353 165.5zM1356 674q0 -310 -176 -502t-467 -192q-177 0 -321 78.5t-230 229 t-86 347.5q0 198 81.5 361.5t227.5 257.5t326 94q137 0 256 -49t205 -136t135 -213.5t49 -275.5zM223 1409q0 38 28 65t66 27q39 0 66 -27t27 -65t-27 -65t-66 -27q-38 0 -66 27t-28 65zM1012 1403q0 38 27 65t65 27t65 -27t27 -65t-27 -65t-65 -27t-65 27t-27 65z" />
<glyph unicode="&#xd7;" horiz-adv-x="1079" d="M610 471l252 -250l-71 -71l-250 249l-250 -249l-74 71l252 250l-252 252l74 72l250 -252l250 252l71 -72z" />
<glyph unicode="&#xd8;" horiz-adv-x="1429" d="M166 -82l-60 53l152 189q-182 180 -182 475q0 198 81.5 361.5t227.5 257.5t326 94q234 0 405 -136l129 160l60 -49l-131 -162q182 -190 182 -487q0 -310 -176 -502t-467 -192q-224 0 -394 126zM684 1278q-61 0 -119.5 -21.5t-114 -69.5t-97 -117t-66.5 -172.5t-25 -227.5 q0 -221 100 -385l674 829q-129 164 -352 164zM1079 1047l-669 -828q68 -82 158.5 -126t185.5 -44q179 0 296 158.5t117 427.5q0 253 -88 412z" />
<glyph unicode="&#xd9;" horiz-adv-x="1353" d="M657 -20q-61 0 -120.5 11.5t-125.5 46t-115 88t-81.5 146t-32.5 211.5v688q0 47 -24.5 66.5t-85.5 24.5l-56 4q-16 0 -16 16v39l4 2q178 -2 258 -2l264 2l4 -2v-39q0 -16 -16 -16l-53 -4q-62 -5 -87.5 -26t-25.5 -65v-620q0 -54 1 -82.5t6.5 -78t16 -82.5t32.5 -72 t53 -70q105 -103 243 -103q63 0 115.5 12t90 35t66 51.5t47 68t30.5 77t18 85.5t8 87t2 88v600q0 48 -24 69t-86 26l-56 4q-16 0 -16 16v39l4 2q145 -2 225 -2l226 2l4 -2v-39q0 -16 -17 -16l-53 -4q-62 -5 -87.5 -27.5t-25.5 -67.5v-563q0 -116 -13 -205.5t-47.5 -170.5 t-91 -134t-148 -83.5t-214.5 -30.5zM565 1675l248 -172q31 -22 31 -43q0 -30 -31 -30t-88 24l-315 129z" />
<glyph unicode="&#xda;" horiz-adv-x="1353" d="M657 -20q-61 0 -120.5 11.5t-125.5 46t-115 88t-81.5 146t-32.5 211.5v688q0 47 -24.5 66.5t-85.5 24.5l-56 4q-16 0 -16 16v39l4 2q178 -2 258 -2l264 2l4 -2v-39q0 -16 -16 -16l-53 -4q-62 -5 -87.5 -26t-25.5 -65v-620q0 -54 1 -82.5t6.5 -78t16 -82.5t32.5 -72 t53 -70q105 -103 243 -103q63 0 115.5 12t90 35t66 51.5t47 68t30.5 77t18 85.5t8 87t2 88v600q0 48 -24 69t-86 26l-56 4q-16 0 -16 16v39l4 2q145 -2 225 -2l226 2l4 -2v-39q0 -16 -17 -16l-53 -4q-62 -5 -87.5 -27.5t-25.5 -67.5v-563q0 -116 -13 -205.5t-47.5 -170.5 t-91 -134t-148 -83.5t-214.5 -30.5zM829 1677l127 -106l-294 -119q-61 -25 -89 -25t-28 31q0 22 30 43z" />
<glyph unicode="&#xdb;" horiz-adv-x="1353" d="M657 -20q-61 0 -120.5 11.5t-125.5 46t-115 88t-81.5 146t-32.5 211.5v688q0 47 -24.5 66.5t-85.5 24.5l-56 4q-16 0 -16 16v39l4 2q178 -2 258 -2l264 2l4 -2v-39q0 -16 -16 -16l-53 -4q-62 -5 -87.5 -26t-25.5 -65v-620q0 -54 1 -82.5t6.5 -78t16 -82.5t32.5 -72 t53 -70q105 -103 243 -103q63 0 115.5 12t90 35t66 51.5t47 68t30.5 77t18 85.5t8 87t2 88v600q0 48 -24 69t-86 26l-56 4q-16 0 -16 16v39l4 2q145 -2 225 -2l226 2l4 -2v-39q0 -16 -17 -16l-53 -4q-62 -5 -87.5 -27.5t-25.5 -67.5v-563q0 -116 -13 -205.5t-47.5 -170.5 t-91 -134t-148 -83.5t-214.5 -30.5zM758 1649q83 -101 207 -193l-33 -43q-128 59 -217 127q-102 -74 -219 -127l-29 43q84 63 203 193h88z" />
<glyph unicode="&#xdc;" horiz-adv-x="1353" d="M475 1407q0 38 27 65t65 27t64 -27t26 -65t-26 -65t-64 -27t-65 27t-27 65zM770 1407q0 37 26.5 64.5t63.5 27.5q38 0 66 -27.5t28 -64.5q0 -38 -28 -66t-66 -28q-37 0 -63.5 28t-26.5 66zM655 -25q-61 0 -119.5 11.5t-125 46t-115 88t-81 146t-32.5 212.5v686 q0 29 -12 48.5t-35 30t-44.5 15t-51.5 7.5q-8 0 -13.5 5.5t-5.5 12.5v37l5 2q155 -2 235 -2q37 0 94.5 1t94.5 1q12 0 12 -20v-21q0 -16 -17 -16q-59 -9 -78.5 -32t-19.5 -69v-618q0 -65 2.5 -104t12 -95t33.5 -101.5t63 -84.5q101 -103 243 -103q72 0 129 16.5t96 43 t67.5 67.5t44.5 82t25.5 95.5t12 99t2.5 100.5v602q0 47 -21.5 68t-76.5 33q-16 4 -16 16v23q0 8 6 13t12 5q24 0 62 -1t81 -1l205 2l4 -2v-37q0 -10 -11 -13t-40 -5q-61 -4 -86 -27t-25 -68v-571q0 -116 -13 -205.5t-47.5 -171t-91.5 -134t-148.5 -83.5t-215.5 -31z" />
<glyph unicode="&#xdd;" horiz-adv-x="1175" d="M520 147v383q0 61 -18 88l-297 502q-53 87 -80 113t-80 31l-25 2q-20 0 -20 14v41l2 2q191 -2 217 -2l236 2l2 -2v-39q0 -16 -13 -16l-59 -2q-21 -1 -33 -5t-16.5 -9.5t-1.5 -18t8 -21.5l16 -30l281 -494h4l262 494q24 47 16 63.5t-44 18.5l-62 4q-10 0 -10 14v41l2 2 q162 -2 188 -2l179 2l4 -2v-41q0 -10 -21 -14l-43 -4q-34 -3 -58 -18t-35.5 -31.5t-33.5 -55.5l-289 -522q-14 -32 -14 -86v-402q0 -48 26.5 -70t86.5 -22h55q16 0 16 -16v-39l-4 -4q-178 4 -258 4l-264 -4l-4 4v39q0 16 16 16h54q60 0 86 23.5t26 68.5zM737 1679l127 -106 l-295 -119q-57 -24 -88 -24q-28 0 -28 30q0 22 30 43z" />
<glyph unicode="&#xde;" horiz-adv-x="1071" d="M367 981v-596q30 -10 145 -10q47 0 88.5 8.5t83 31t71 58t48 94.5t18.5 135q0 71 -17 125.5t-43.5 87t-63.5 53.5t-73 28.5t-75 7.5q-31 0 -91 -7t-91 -16zM201 1178q0 44 -25 61.5t-88 22.5l-53 4q-6 0 -11.5 4.5t-5.5 11.5v39l5 2q178 -2 258 -2l264 2l4 -2v-39 q0 -16 -17 -16l-55 -4q-62 -5 -86 -23.5t-24 -60.5v-115q73 4 184 4q109 0 192 -24.5t130.5 -61.5t77.5 -88t40 -96.5t10 -94.5t-14 -99.5t-50 -104t-88.5 -94.5t-137 -67t-189.5 -26q-114 0 -155 15v-179q0 -46 24.5 -64.5t85.5 -23.5l55 -4q17 0 17 -16v-39l-4 -4 q-178 4 -258 4l-264 -4l-5 4v39q0 16 17 16l53 4q64 5 88.5 25t24.5 63v1031z" />
<glyph unicode="&#xdf;" horiz-adv-x="1095" d="M188 977q0 97 27.5 176.5t70 129.5t98 84.5t109 48.5t105.5 14q76 0 136.5 -21.5t95.5 -56t53 -73t18 -77.5q0 -46 -13.5 -88.5t-33.5 -75t-56 -69t-68 -63.5l-83 -64v-4l85 -58q32 -22 80.5 -61t79 -75t61 -81.5t45 -98.5t14.5 -110q0 -163 -88 -268.5t-228 -105.5 q-61 0 -105 17.5t-66.5 47.5t-32 62t-9.5 69q0 25 20 48.5t44 23.5q57 0 57 -62q0 -18 -8 -42t-8 -35q0 -22 9.5 -36t28 -19.5t33 -7t37.5 -1.5q52 0 93.5 72t41.5 202q0 135 -83.5 260t-223.5 232v27q57 44 93 77.5t65.5 74t43 86t13.5 100.5q0 86 -40.5 137t-118.5 51 q-52 0 -91.5 -18t-65 -52.5t-42.5 -75.5t-25 -96.5t-11 -105t-3 -111.5v-729q0 -103 88 -121q19 -4 19 -16v-39l-5 -4q-102 4 -184 4l-211 -4l-4 4v39q0 13 16 16l39 4q52 7 70 25t18 63v629q0 20 -5 26.5t-25 6.5h-90q-8 0 -10.5 2t-2.5 8v19q0 15 12 28t35 13q86 0 86 98z " />
<glyph unicode="&#xe0;" horiz-adv-x="923" d="M596 477l-162 -43q-198 -54 -198 -225q0 -55 40 -100.5t111 -45.5q70 0 180 89q29 20 29 53v272zM596 98h-4l-41 -32q-68 -53 -110.5 -69.5t-112.5 -16.5q-116 0 -185 53t-69 168q0 102 91.5 180.5t242.5 116.5l176 43q12 4 12 24q0 67 -11 117.5t-27 79.5t-39.5 46.5 t-44 23.5t-44.5 6q-66 0 -118 -24t-52 -69q0 -28 4 -40q6 -13 6 -37t-24.5 -46t-65.5 -22q-71 0 -71 72q0 54 49 107t128 86.5t160 33.5q49 0 89.5 -8t81.5 -30.5t68.5 -59.5t45 -100.5t17.5 -147.5v-305q0 -29 0.5 -46.5t3 -41t7.5 -37t13.5 -27.5t23 -20t33.5 -6 q22 0 36 8t21 16t11 8q6 0 14.5 -10t8.5 -20q0 -4 -8 -14t-23.5 -23t-35.5 -25.5t-47.5 -21t-55.5 -8.5q-121 0 -154 118zM401 1374l144 -258q12 -24 12 -49q0 -8 -9.5 -15.5t-21.5 -7.5q-14 0 -59 41l-234 224l5 22q63 47 133 47q14 0 30 -4z" />
<glyph unicode="&#xe1;" horiz-adv-x="923" d="M596 477l-162 -43q-198 -54 -198 -225q0 -55 40 -100.5t111 -45.5q70 0 180 89q29 20 29 53v272zM596 98h-4l-41 -32q-68 -53 -110.5 -69.5t-112.5 -16.5q-116 0 -185 53t-69 168q0 102 91.5 180.5t242.5 116.5l176 43q12 4 12 24q0 67 -11 117.5t-27 79.5t-39.5 46.5 t-44 23.5t-44.5 6q-66 0 -118 -24t-52 -69q0 -28 4 -40q6 -13 6 -37t-24.5 -46t-65.5 -22q-71 0 -71 72q0 54 49 107t128 86.5t160 33.5q49 0 89.5 -8t81.5 -30.5t68.5 -59.5t45 -100.5t17.5 -147.5v-305q0 -29 0.5 -46.5t3 -41t7.5 -37t13.5 -27.5t23 -20t33.5 -6 q22 0 36 8t21 16t11 8q6 0 14.5 -10t8.5 -20q0 -4 -8 -14t-23.5 -23t-35.5 -25.5t-47.5 -21t-55.5 -8.5q-121 0 -154 118zM500 1374q12 4 28 4q62 0 101 -39l12 -8l6 -22l-235 -224q-42 -41 -60 -41q-11 0 -19.5 8.5t-8.5 18.5q0 25 12 45z" />
<glyph unicode="&#xe2;" horiz-adv-x="923" d="M596 477l-162 -43q-198 -54 -198 -225q0 -55 40 -100.5t111 -45.5q70 0 180 89q29 20 29 53v272zM596 98h-4l-41 -32q-68 -53 -110.5 -69.5t-112.5 -16.5q-116 0 -185 53t-69 168q0 102 91.5 180.5t242.5 116.5l176 43q12 4 12 24q0 67 -11 117.5t-27 79.5t-39.5 46.5 t-44 23.5t-44.5 6q-66 0 -118 -24t-52 -69q0 -28 4 -40q6 -13 6 -37t-24.5 -46t-65.5 -22q-71 0 -71 72q0 54 49 107t128 86.5t160 33.5q49 0 89.5 -8t81.5 -30.5t68.5 -59.5t45 -100.5t17.5 -147.5v-305q0 -29 0.5 -46.5t3 -41t7.5 -37t13.5 -27.5t23 -20t33.5 -6 q22 0 36 8t21 16t11 8q6 0 14.5 -10t8.5 -20q0 -4 -8 -14t-23.5 -23t-35.5 -25.5t-47.5 -21t-55.5 -8.5q-121 0 -154 118zM492 1323q65 -105 206 -264l-43 -29q-144 108 -217 184q-96 -97 -219 -184l-41 29q149 165 211 264h103z" />
<glyph unicode="&#xe3;" horiz-adv-x="923" d="M596 477l-162 -43q-198 -54 -198 -225q0 -55 40 -100.5t111 -45.5q70 0 180 89q29 20 29 53v272zM596 98h-4l-41 -32q-68 -53 -110.5 -69.5t-112.5 -16.5q-116 0 -185 53t-69 168q0 102 91.5 180.5t242.5 116.5l176 43q12 4 12 24q0 67 -11 117.5t-27 79.5t-39.5 46.5 t-44 23.5t-44.5 6q-66 0 -118 -24t-52 -69q0 -28 4 -40q6 -13 6 -37t-24.5 -46t-65.5 -22q-71 0 -71 72q0 54 49 107t128 86.5t160 33.5q49 0 89.5 -8t81.5 -30.5t68.5 -59.5t45 -100.5t17.5 -147.5v-305q0 -29 0.5 -46.5t3 -41t7.5 -37t13.5 -27.5t23 -20t33.5 -6 q22 0 36 8t21 16t11 8q6 0 14.5 -10t8.5 -20q0 -4 -8 -14t-23.5 -23t-35.5 -25.5t-47.5 -21t-55.5 -8.5q-121 0 -154 118zM580 1167q35 0 58 22.5t44 84.5l49 -12q-36 -185 -178 -185q-50 0 -131 53q-74 46 -111 46q-39 0 -62 -23.5t-38 -75.5l-49 10q22 93 60.5 138 t103.5 45t147 -58q62 -45 107 -45z" />
<glyph unicode="&#xe4;" horiz-adv-x="923" d="M596 477l-162 -43q-198 -54 -198 -225q0 -55 40 -100.5t111 -45.5q70 0 180 89q29 20 29 53v272zM596 98h-4l-41 -32q-68 -53 -110.5 -69.5t-112.5 -16.5q-116 0 -185 53t-69 168q0 102 91.5 180.5t242.5 116.5l176 43q12 4 12 24q0 67 -11 117.5t-27 79.5t-39.5 46.5 t-44 23.5t-44.5 6q-66 0 -118 -24t-52 -69q0 -28 4 -40q6 -13 6 -37t-24.5 -46t-65.5 -22q-71 0 -71 72q0 54 49 107t128 86.5t160 33.5q49 0 89.5 -8t81.5 -30.5t68.5 -59.5t45 -100.5t17.5 -147.5v-305q0 -29 0.5 -46.5t3 -41t7.5 -37t13.5 -27.5t23 -20t33.5 -6 q22 0 36 8t21 16t11 8q6 0 14.5 -10t8.5 -20q0 -4 -8 -14t-23.5 -23t-35.5 -25.5t-47.5 -21t-55.5 -8.5q-121 0 -154 118zM508 1174q0 38 28 65t66 27t65 -27t27 -65q0 -39 -27 -67t-65 -28t-66 28t-28 67zM180 1174q0 38 27 65t65 27q39 0 67 -27t28 -65q0 -39 -28 -67 t-67 -28q-38 0 -65 28t-27 67z" />
<glyph unicode="&#xe5;" horiz-adv-x="923" d="M596 477l-162 -43q-198 -54 -198 -225q0 -55 40 -100.5t111 -45.5q70 0 180 89q29 20 29 53v272zM596 98h-4l-41 -32q-68 -53 -110.5 -69.5t-112.5 -16.5q-116 0 -185 53t-69 168q0 102 91.5 180.5t242.5 116.5l176 43q12 4 12 24q0 67 -11 117.5t-27 79.5t-39.5 46.5 t-44 23.5t-44.5 6q-66 0 -118 -24t-52 -69q0 -28 4 -40q6 -13 6 -37t-24.5 -46t-65.5 -22q-71 0 -71 72q0 54 49 107t128 86.5t160 33.5q49 0 89.5 -8t81.5 -30.5t68.5 -59.5t45 -100.5t17.5 -147.5v-305q0 -29 0.5 -46.5t3 -41t7.5 -37t13.5 -27.5t23 -20t33.5 -6 q22 0 36 8t21 16t11 8q6 0 14.5 -10t8.5 -20q0 -4 -8 -14t-23.5 -23t-35.5 -25.5t-47.5 -21t-55.5 -8.5q-121 0 -154 118zM430 1307q-47 0 -79 -34.5t-32 -80.5q0 -44 32.5 -79.5t78.5 -35.5q47 0 79 35.5t32 79.5q0 47 -32.5 81t-78.5 34zM254 1192q0 70 51.5 120t122.5 50 t123.5 -49.5t52.5 -120.5q0 -69 -51.5 -119.5t-124.5 -50.5q-71 0 -122.5 50t-51.5 120z" />
<glyph unicode="&#xe6;" horiz-adv-x="1406" d="M543 786q-52 52 -119 52t-119.5 -25t-52.5 -70q0 -31 6 -41q6 -12 6 -36q0 -27 -21.5 -47.5t-58.5 -20.5q-43 0 -62.5 27.5t-19.5 64.5q0 87 99.5 148t228.5 61q21 0 41.5 -1.5t57 -9.5t67 -22t63 -42.5t54.5 -67.5q50 69 126.5 106t164.5 37q82 0 148 -22t102 -55 t54.5 -66t18.5 -62q0 -85 -49.5 -133.5t-169.5 -75t-348 -39.5q0 -160 81.5 -263t198.5 -103q80 0 134.5 28t103.5 85l35 -21q-47 -87 -125 -139.5t-176 -52.5q-203 0 -316 141q-44 -63 -123 -102t-163 -39q-158 0 -244 63t-86 170q0 141 130 210.5t400 88.5 q-1 119 -16.5 179t-50.5 95zM610 440q-185 -14 -284 -74t-99 -143q0 -72 46.5 -114.5t140.5 -42.5q130 0 178 141q18 55 18 233zM762 518q77 5 130.5 10t102.5 14t79.5 21t53.5 29.5t33 41t10 54.5q0 52 -49.5 96.5t-120.5 44.5q-101 0 -163.5 -87.5t-75.5 -223.5z" />
<glyph unicode="&#xe7;" horiz-adv-x="841" d="M430 -160q-52 0 -92 -12l-12 12l67 150q-148 31 -232.5 147.5t-84.5 288.5q0 211 123.5 342t296.5 131q140 0 220.5 -61t80.5 -148q0 -42 -23 -66t-57 -24q-35 0 -60.5 19t-29.5 55q-4 28 -6.5 43t-12.5 39.5t-23.5 38t-39 24t-60.5 10.5q-104 0 -169.5 -96.5 t-65.5 -261.5q0 -177 83 -289t204 -112q128 0 229 145l37 -29q-65 -112 -140 -159t-171 -47h-33l-33 -80q24 6 53 6q63 0 104.5 -35t41.5 -92q0 -65 -62.5 -105.5t-156.5 -40.5q-71 0 -152 35l20 45q78 -28 119 -28q50 0 86.5 22t36.5 62q0 32 -25 51.5t-61 19.5z" />
<glyph unicode="&#xe8;" horiz-adv-x="874" d="M240 588h376q29 0 29 28q0 61 -15.5 105t-42 66.5t-54 32t-58.5 9.5q-20 0 -39.5 -2.5t-52.5 -16t-58.5 -37.5t-50 -72t-34.5 -113zM780 195l41 -33q-61 -84 -150 -133t-196 -49q-200 0 -302.5 120t-102.5 308q0 112 36 207t94 156t129.5 94.5t145.5 33.5q78 0 138 -21 t96.5 -54.5t59.5 -81.5t31.5 -96t8.5 -103q0 -35 -37 -35h-539q0 -88 19.5 -161.5t50 -121.5t70 -81.5t77.5 -48.5t74 -15q83 0 142 27.5t114 87.5zM430 1374l143 -258q13 -24 13 -49q0 -8 -9.5 -15.5t-21.5 -7.5q-15 0 -59 41l-234 224l4 22q67 47 133 47q15 0 31 -4z" />
<glyph unicode="&#xe9;" horiz-adv-x="874" d="M240 588h376q29 0 29 28q0 61 -15.5 105t-42 66.5t-54 32t-58.5 9.5q-20 0 -39.5 -2.5t-52.5 -16t-58.5 -37.5t-50 -72t-34.5 -113zM780 195l41 -33q-61 -84 -150 -133t-196 -49q-200 0 -302.5 120t-102.5 308q0 112 36 207t94 156t129.5 94.5t145.5 33.5q78 0 138 -21 t96.5 -54.5t59.5 -81.5t31.5 -96t8.5 -103q0 -35 -37 -35h-539q0 -88 19.5 -161.5t50 -121.5t70 -81.5t77.5 -48.5t74 -15q83 0 142 27.5t114 87.5zM553 1374q12 4 29 4q63 0 100 -39l12 -8l6 -22l-235 -224q-42 -41 -59 -41q-11 0 -20 8.5t-9 18.5q0 25 12 45z" />
<glyph unicode="&#xea;" horiz-adv-x="874" d="M240 588h376q29 0 29 28q0 61 -15.5 105t-42 66.5t-54 32t-58.5 9.5q-20 0 -39.5 -2.5t-52.5 -16t-58.5 -37.5t-50 -72t-34.5 -113zM780 195l41 -33q-61 -84 -150 -133t-196 -49q-200 0 -302.5 120t-102.5 308q0 112 36 207t94 156t129.5 94.5t145.5 33.5q78 0 138 -21 t96.5 -54.5t59.5 -81.5t31.5 -96t8.5 -103q0 -35 -37 -35h-539q0 -88 19.5 -161.5t50 -121.5t70 -81.5t77.5 -48.5t74 -15q83 0 142 27.5t114 87.5zM528 1323q66 -106 207 -264l-43 -29q-144 108 -217 184q-96 -97 -219 -184l-41 29q149 165 211 264h102z" />
<glyph unicode="&#xeb;" horiz-adv-x="874" d="M240 588h376q29 0 29 28q0 61 -15.5 105t-42 66.5t-54 32t-58.5 9.5q-20 0 -39.5 -2.5t-52.5 -16t-58.5 -37.5t-50 -72t-34.5 -113zM780 195l41 -33q-61 -84 -150 -133t-196 -49q-200 0 -302.5 120t-102.5 308q0 112 36 207t94 156t129.5 94.5t145.5 33.5q78 0 138 -21 t96.5 -54.5t59.5 -81.5t31.5 -96t8.5 -103q0 -35 -37 -35h-539q0 -88 19.5 -161.5t50 -121.5t70 -81.5t77.5 -48.5t74 -15q83 0 142 27.5t114 87.5zM541 1174q0 38 28 65t66 27t65 -27t27 -65q0 -39 -27 -67t-65 -28t-66 28t-28 67zM213 1174q0 38 27 65t65 27t66 -27 t28 -65q0 -39 -28 -67t-66 -28t-65 28t-27 67z" />
<glyph unicode="&#xec;" horiz-adv-x="546" d="M203 1374l143 -258q12 -24 12 -49q0 -8 -9 -15.5t-21 -7.5q-15 0 -60 41l-233 224l4 22q63 47 133 47q15 0 31 -4zM369 899q-7 -139 -7 -242v-510q0 -44 19.5 -63.5t67.5 -24.5l38 -4q19 -3 19 -16v-39l-4 -4q-133 4 -217 4l-215 -4l-4 4v39q0 13 16 16l39 4 q52 7 70 25.5t18 62.5v510q0 73 -10.5 98.5t-34.5 28.5l-88 9l-4 49q206 31 288 63q9 0 9 -6z" />
<glyph unicode="&#xed;" horiz-adv-x="546" d="M334 1374q12 4 28 4q62 0 101 -39l12 -8l6 -22l-235 -224q-42 -41 -60 -41q-11 0 -19.5 8.5t-8.5 18.5q0 25 12 45zM369 899q-7 -139 -7 -242v-510q0 -44 19.5 -63.5t67.5 -24.5l38 -4q19 -3 19 -16v-39l-4 -4q-133 4 -217 4l-215 -4l-4 4v39q0 13 16 16l39 4 q52 7 70 25.5t18 62.5v510q0 73 -10.5 98.5t-34.5 28.5l-88 9l-4 49q206 31 288 63q9 0 9 -6z" />
<glyph unicode="&#xee;" horiz-adv-x="546" d="M307 1323q70 -113 207 -264l-43 -29q-144 108 -217 184q-96 -97 -219 -184l-41 29q145 161 211 264h102zM369 899q-7 -139 -7 -242v-510q0 -44 19.5 -63.5t67.5 -24.5l38 -4q19 -3 19 -16v-39l-4 -4q-133 4 -217 4l-215 -4l-4 4v39q0 13 16 16l39 4q52 7 70 25.5t18 62.5 v510q0 73 -10.5 98.5t-34.5 28.5l-88 9l-4 49q206 31 288 63q9 0 9 -6z" />
<glyph unicode="&#xef;" horiz-adv-x="546" d="M330 1174q0 38 28 65t66 27t65 -27t27 -65q0 -39 -27 -67t-65 -28t-66 28t-28 67zM2 1174q0 38 27 65t65 27t66 -27t28 -65q0 -39 -28 -67t-66 -28t-65 28t-27 67zM369 899q-7 -139 -7 -242v-510q0 -44 19.5 -63.5t67.5 -24.5l38 -4q19 -3 19 -16v-39l-4 -4 q-133 4 -217 4l-215 -4l-4 4v39q0 13 16 16l39 4q52 7 70 25.5t18 62.5v510q0 73 -10.5 98.5t-34.5 28.5l-88 9l-4 49q206 31 288 63q9 0 9 -6z" />
<glyph unicode="&#xf0;" horiz-adv-x="993" d="M506 59q32 0 62 9t63 36t57 69t39.5 115.5t15.5 168.5q0 155 -32 272q-78 98 -209 98q-74 0 -127 -34.5t-80 -91.5t-39 -116.5t-12 -123.5q0 -174 75.5 -288t186.5 -114zM70 426q0 102 29.5 185t75.5 135t105 88t115.5 50.5t110.5 14.5q86 0 158 -29q-64 151 -185 301 l-223 -149l-45 65l215 146l-33 33q-67 70 -139 120l33 44q106 -58 217 -146l217 146l45 -66l-199 -133l37 -37q309 -309 309 -709q0 -125 -36.5 -224t-99 -159t-140.5 -91t-166 -31q-74 0 -139 26t-112 70t-81.5 101t-51.5 121t-17 128z" />
<glyph unicode="&#xf1;" horiz-adv-x="1071" d="M340 899l-6 -182h6q91 107 168.5 144.5t165.5 37.5q67 0 112.5 -24t69.5 -70.5t33.5 -101t9.5 -128.5v-428q0 -44 19 -63.5t67 -24.5l39 -4q18 -4 18 -16v-39l-4 -4q-135 4 -221 4l-201 -4l-4 4v39q0 13 17 16l28 4q51 8 69.5 26.5t18.5 61.5v443q0 114 -27.5 162.5 t-105.5 48.5q-71 0 -134 -35t-138 -123v-496q0 -44 18.5 -62t69.5 -26l29 -4q16 -3 16 -16v-39l-4 -4q-127 4 -209 4l-213 -4l-4 4v39q0 13 16 16l39 4q51 5 69.5 24t18.5 64v510q0 73 -10.5 98.5t-34.5 28.5l-88 9l-4 49q196 30 283 63q8 0 8 -6zM709 1167q35 0 58 22.5 t44 84.5l49 -12q-36 -185 -178 -185q-50 0 -131 53q-74 46 -111 46q-39 0 -62 -23.5t-38 -75.5l-49 10q22 93 60.5 138t103.5 45t147 -58q62 -45 107 -45z" />
<glyph unicode="&#xf2;" horiz-adv-x="991" d="M74 420q0 215 112 347t312 132q88 0 160 -27.5t119.5 -73t80 -106t46.5 -124.5t14 -130q0 -80 -26.5 -158.5t-76 -146.5t-133.5 -110.5t-188 -42.5q-99 0 -181 39t-133 103t-78.5 141t-27.5 157zM475 831q-78 0 -131 -55.5t-74.5 -134.5t-21.5 -174q0 -50 9.5 -104.5 t31.5 -111.5t53 -102t79.5 -73.5t106.5 -28.5q39 0 73.5 13.5t68 47t53.5 101.5t20 164q0 223 -70 340.5t-198 117.5zM459 1374l143 -258q12 -24 12 -49q0 -8 -9 -15.5t-21 -7.5q-15 0 -60 41l-233 224l4 22q63 47 133 47q15 0 31 -4z" />
<glyph unicode="&#xf3;" horiz-adv-x="991" d="M74 420q0 215 112 347t312 132q88 0 160 -27.5t119.5 -73t80 -106t46.5 -124.5t14 -130q0 -80 -26.5 -158.5t-76 -146.5t-133.5 -110.5t-188 -42.5q-99 0 -181 39t-133 103t-78.5 141t-27.5 157zM475 831q-78 0 -131 -55.5t-74.5 -134.5t-21.5 -174q0 -50 9.5 -104.5 t31.5 -111.5t53 -102t79.5 -73.5t106.5 -28.5q39 0 73.5 13.5t68 47t53.5 101.5t20 164q0 223 -70 340.5t-198 117.5zM553 1374q12 4 29 4q63 0 100 -39l12 -8l6 -22l-235 -224q-42 -41 -59 -41q-11 0 -20 8.5t-9 18.5q0 25 12 45z" />
<glyph unicode="&#xf4;" horiz-adv-x="991" d="M74 420q0 215 112 347t312 132q88 0 160 -27.5t119.5 -73t80 -106t46.5 -124.5t14 -130q0 -80 -26.5 -158.5t-76 -146.5t-133.5 -110.5t-188 -42.5q-99 0 -181 39t-133 103t-78.5 141t-27.5 157zM475 831q-78 0 -131 -55.5t-74.5 -134.5t-21.5 -174q0 -50 9.5 -104.5 t31.5 -111.5t53 -102t79.5 -73.5t106.5 -28.5q39 0 73.5 13.5t68 47t53.5 101.5t20 164q0 223 -70 340.5t-198 117.5zM547 1323q67 -109 207 -264l-43 -29q-148 111 -217 184q-94 -95 -220 -184l-41 29q149 165 211 264h103z" />
<glyph unicode="&#xf5;" horiz-adv-x="991" d="M74 420q0 215 112 347t312 132q88 0 160 -27.5t119.5 -73t80 -106t46.5 -124.5t14 -130q0 -80 -26.5 -158.5t-76 -146.5t-133.5 -110.5t-188 -42.5q-99 0 -181 39t-133 103t-78.5 141t-27.5 157zM475 831q-78 0 -131 -55.5t-74.5 -134.5t-21.5 -174q0 -50 9.5 -104.5 t31.5 -111.5t53 -102t79.5 -73.5t106.5 -28.5q39 0 73.5 13.5t68 47t53.5 101.5t20 164q0 223 -70 340.5t-198 117.5zM623 1167q35 0 58 22.5t44 84.5l49 -12q-36 -185 -178 -185q-50 0 -131 53q-74 46 -111 46q-39 0 -62 -23.5t-38 -75.5l-49 10q22 93 60.5 138t103.5 45 t147 -58q62 -45 107 -45z" />
<glyph unicode="&#xf6;" horiz-adv-x="991" d="M567 1174q0 38 28 65t67 27q38 0 65 -27t27 -65q0 -39 -27 -67t-65 -28q-39 0 -67 28t-28 67zM240 1174q0 38 27 65t65 27t66 -27t28 -65q0 -39 -28 -67t-66 -28t-65 28t-27 67zM74 420q0 215 112 347t312 132q88 0 160 -27.5t119.5 -73t80 -106t46.5 -124.5t14 -130 q0 -80 -26.5 -158.5t-76 -146.5t-133.5 -110.5t-188 -42.5q-99 0 -181 39t-133 103t-78.5 141t-27.5 157zM475 831q-78 0 -131 -55.5t-74.5 -134.5t-21.5 -174q0 -50 9.5 -104.5t31.5 -111.5t53 -102t79.5 -73.5t106.5 -28.5q39 0 73.5 13.5t68 47t53.5 101.5t20 164 q0 223 -70 340.5t-198 117.5z" />
<glyph unicode="&#xf7;" horiz-adv-x="1079" d="M453 750q0 37 26.5 63.5t63.5 26.5q38 0 65 -26.5t27 -63.5q0 -38 -27 -64.5t-65 -26.5q-37 0 -63.5 27t-26.5 64zM453 201q0 37 26.5 63.5t63.5 26.5q38 0 65 -26.5t27 -63.5t-27 -63.5t-65 -26.5q-37 0 -63.5 26.5t-26.5 63.5zM944 526v-100h-809v100h809z" />
<glyph unicode="&#xf8;" horiz-adv-x="991" d="M848 930l63 -47l-100 -121q53 -65 80 -150.5t27 -173.5q0 -80 -26.5 -158.5t-76 -146.5t-133.5 -110.5t-188 -42.5q-148 0 -254 83l-101 -120l-61 53l102 125q-106 129 -106 299q0 215 112 347t312 132q148 0 258 -82zM475 831q-78 0 -131 -55.5t-74.5 -134.5t-21.5 -174 q0 -113 41 -215l383 465q-70 114 -197 114zM709 635l-381 -463q78 -125 200 -125q39 0 73.5 13.5t68 47t53.5 101.5t20 164q0 154 -34 262z" />
<glyph unicode="&#xf9;" horiz-adv-x="1058" d="M723 721q0 51 -18.5 71.5t-71.5 26.5l-33 4l-6 4v52l6 4q137 -4 203 -4l67 4q9 0 9 -4l-2 -158v-483q0 -76 9 -96t42 -23l98 -10l6 -48q-199 -35 -262 -86h-47l4 156h-4q-80 -86 -148.5 -118.5t-138.5 -32.5q-73 0 -125 23t-79.5 64t-39.5 87.5t-12 103.5v463 q0 51 -18.5 71.5t-71.5 26.5l-33 4l-6 4v52l6 4q138 -4 203 -4l68 4q8 0 8 -4l-2 -158v-434q0 -65 15 -110.5t40 -66.5t49 -29.5t51 -8.5q67 0 132 49q66 50 102 92v508zM449 1374l143 -258q12 -24 12 -49q0 -8 -9.5 -15.5t-21.5 -7.5q-14 0 -59 41l-233 224l4 22 q63 47 133 47q13 0 31 -4z" />
<glyph unicode="&#xfa;" horiz-adv-x="1058" d="M723 721q0 51 -18.5 71.5t-71.5 26.5l-33 4l-6 4v52l6 4q137 -4 203 -4l67 4q9 0 9 -4l-2 -158v-483q0 -76 9 -96t42 -23l98 -10l6 -48q-199 -35 -262 -86h-47l4 156h-4q-80 -86 -148.5 -118.5t-138.5 -32.5q-73 0 -125 23t-79.5 64t-39.5 87.5t-12 103.5v463 q0 51 -18.5 71.5t-71.5 26.5l-33 4l-6 4v52l6 4q138 -4 203 -4l68 4q8 0 8 -4l-2 -158v-434q0 -65 15 -110.5t40 -66.5t49 -29.5t51 -8.5q67 0 132 49q66 50 102 92v508zM608 1374q12 4 29 4q63 0 100 -39q3 -2 8 -4q4 -3 5 -4l6 -22l-236 -224q-42 -41 -59 -41 q-11 0 -20 8.5t-9 18.5q0 25 12 45z" />
<glyph unicode="&#xfb;" horiz-adv-x="1058" d="M723 721q0 51 -18.5 71.5t-71.5 26.5l-33 4l-6 4v52l6 4q137 -4 203 -4l67 4q9 0 9 -4l-2 -158v-483q0 -76 9 -96t42 -23l98 -10l6 -48q-199 -35 -262 -86h-47l4 156h-4q-80 -86 -148.5 -118.5t-138.5 -32.5q-73 0 -125 23t-79.5 64t-39.5 87.5t-12 103.5v463 q0 51 -18.5 71.5t-71.5 26.5l-33 4l-6 4v52l6 4q138 -4 203 -4l68 4q8 0 8 -4l-2 -158v-434q0 -65 15 -110.5t40 -66.5t49 -29.5t51 -8.5q67 0 132 49q66 50 102 92v508zM557 1323q67 -109 207 -264l-43 -29q-148 111 -217 184q-92 -93 -219 -184l-41 29q150 169 211 264 h102z" />
<glyph unicode="&#xfc;" horiz-adv-x="1058" d="M723 721q0 51 -18.5 71.5t-71.5 26.5l-33 4l-6 4v52l6 4q137 -4 203 -4l67 4q9 0 9 -4l-2 -158v-483q0 -76 9 -96t42 -23l98 -10l6 -48q-199 -35 -262 -86h-47l4 156h-4q-80 -86 -148.5 -118.5t-138.5 -32.5q-73 0 -125 23t-79.5 64t-39.5 87.5t-12 103.5v463 q0 51 -18.5 71.5t-71.5 26.5l-33 4l-6 4v52l6 4q138 -4 203 -4l68 4q8 0 8 -4l-2 -158v-434q0 -65 15 -110.5t40 -66.5t49 -29.5t51 -8.5q67 0 132 49q66 50 102 92v508zM590 1174q0 38 28 65t66 27t65 -27t27 -65q0 -39 -27 -67t-65 -28t-66 28t-28 67zM262 1174 q0 38 27 65t65 27q39 0 67 -27t28 -65q0 -39 -28 -67t-67 -28q-38 0 -65 28t-27 67z" />
<glyph unicode="&#xfd;" horiz-adv-x="1034" d="M420 840q0 -17 -23 -17q-42 -3 -61 -11t-25.5 -27.5t11.5 -53.5l225 -528l227 520q13 24 14.5 41.5t-4.5 27.5t-21.5 17t-30.5 9.5t-38 4.5q-7 0 -13.5 5t-6.5 10v39l4 6q121 -4 192 -4l142 4l6 -4v-39q0 -14 -23 -17q-50 -4 -83 -41.5t-62 -97.5q-129 -271 -363 -836 q-23 -56 -39.5 -91.5t-45 -84.5t-55 -77t-64.5 -49t-80 -21q-40 0 -79.5 23.5t-39.5 72.5q0 42 24 61t54 19q43 0 63 -29l20 -18q6 -6 16 -11t20 -5q33 0 157 305q17 31 17 63q0 27 -35 117l-258 600q-24 57 -49 76t-76 24q-21 3 -21 15v41l4 4q93 -4 152 -4q168 0 244 4 l4 -6v-37zM645 1374q12 4 29 4q63 0 100 -39l12 -8l7 -22l-236 -224q-42 -41 -59 -41q-11 0 -20 8.5t-9 18.5q0 25 12 45z" />
<glyph unicode="&#xfe;" horiz-adv-x="1026" d="M330 637v-500q72 -88 178 -88q78 0 133 33t83 90t40 119t12 135q0 106 -22.5 187.5t-83.5 142.5q-51 49 -119 49q-59 0 -124 -46t-97 -122zM176 1153q0 95 -14 127.5t-47 32.5l-66 4q-12 0 -12 10l-4 49q63 5 150.5 22t125.5 32q27 0 27 -21q-6 -82 -6 -215v-391l-2 -68 q38 62 109.5 113t166.5 51q96 0 176.5 -59.5t125 -155.5t44.5 -203q0 -238 -145 -383q-118 -118 -287 -118q-106 0 -188 45v-355q0 -45 18.5 -63.5t69.5 -22.5l39 -4q16 -3 16 -16v-39l-4 -4q-139 4 -219 4l-211 -4l-4 4v39q0 16 14 16l39 4q52 6 70 23.5t18 62.5v1483z" />
<glyph unicode="&#xff;" horiz-adv-x="1034" d="M420 840q0 -17 -23 -17q-42 -3 -61 -11t-25.5 -27.5t11.5 -53.5l225 -528l227 520q13 24 14.5 41.5t-4.5 27.5t-21.5 17t-30.5 9.5t-38 4.5q-7 0 -13.5 5t-6.5 10v39l4 6q121 -4 192 -4l142 4l6 -4v-39q0 -14 -23 -17q-50 -4 -83 -41.5t-62 -97.5q-129 -271 -363 -836 q-23 -56 -39.5 -91.5t-45 -84.5t-55 -77t-64.5 -49t-80 -21q-40 0 -79.5 23.5t-39.5 72.5q0 42 24 61t54 19q43 0 63 -29l20 -18q6 -6 16 -11t20 -5q33 0 157 305q17 31 17 63q0 27 -35 117l-258 600q-24 57 -49 76t-76 24q-21 3 -21 15v41l4 4q93 -4 152 -4q168 0 244 4 l4 -6v-37zM625 1174q0 38 28 65t66 27t65 -27t27 -65q0 -39 -27 -67t-65 -28t-66 28t-28 67zM297 1174q0 38 27 65t65 27t66 -27t28 -65q0 -39 -28 -67t-66 -28t-65 28t-27 67z" />
<glyph unicode="&#x152;" horiz-adv-x="1738" d="M688 66h27q60 0 82 18.5t22 62.5v1029q0 46 -21.5 60.5t-82.5 14.5h-72q-78 0 -142.5 -30t-117 -95t-82 -181t-29.5 -275q0 -153 35 -272t94.5 -190t132 -106.5t154.5 -35.5zM692 -4q-141 1 -256.5 51.5t-191.5 139t-117 207.5t-41 257q0 140 38.5 261t110 213t184 145 t251.5 53q141 -2 233 -2h160h526l29 -285l-55 -6q-8 47 -31.5 93t-66.5 81t-93 35h-313q-38 0 -56 -14.5t-18 -50.5v-424h215q52 0 72 20.5t33 69.5l14 61q0 6 4 11.5t10 5.5h45q6 0 6 -9q-1 -21 -8.5 -88.5t-7.5 -105.5q0 -32 2.5 -64t7.5 -73l6 -60l-4 -6h-47 q-16 0 -16 14l-12 64q-11 47 -33.5 68.5t-71.5 21.5h-215v-533q0 -39 18.5 -53t55.5 -14h321q94 0 146.5 67.5t77.5 190.5l55 -10l-53 -328h-705z" />
<glyph unicode="&#x153;" horiz-adv-x="1587" d="M838 715q56 82 143 136t186 54q174 0 259 -114t85 -304h-587q-2 -18 -2 -41q0 -78 20.5 -143.5t51.5 -107t68.5 -70.5t70.5 -41t59 -12q63 0 142 29.5t124 76.5l35 -24q-20 -27 -33 -43t-44 -45.5t-62 -46.5t-80 -30.5t-105 -13.5q-231 0 -344 187q-123 -187 -336 -187 q-185 0 -302 128t-117 319q0 116 34.5 209.5t94 152.5t136 90t163.5 31q74 0 131 -15t96 -45t63 -58.5t50 -71.5zM244 485q0 -118 28 -214.5t91.5 -160t154.5 -63.5q31 0 61.5 9.5t62.5 35.5t55.5 65t39 104.5t15.5 148.5q0 111 -27 198.5t-68 135t-82.5 71t-78.5 23.5 q-61 0 -107 -23.5t-73 -59.5t-44 -85t-22.5 -93t-5.5 -92zM1348 567q-1 30 -5 60.5t-16.5 70t-31.5 68.5t-53.5 49.5t-78.5 20.5q-42 0 -78 -17.5t-60 -45.5t-42.5 -59t-29.5 -63t-16.5 -52.5t-6.5 -31.5h418z" />
<glyph unicode="&#x178;" horiz-adv-x="1175" d="M520 147v383q0 61 -18 88l-297 502q-53 87 -80 113t-80 31l-25 2q-20 0 -20 14v41l2 2q191 -2 217 -2l236 2l2 -2v-39q0 -16 -13 -16l-59 -2q-21 -1 -33 -5t-16.5 -9.5t-1.5 -18t8 -21.5l16 -30l281 -494h4l262 494q24 47 16 63.5t-44 18.5l-62 4q-10 0 -10 14v41l2 2 q162 -2 188 -2l179 2l4 -2v-41q0 -10 -21 -14l-43 -4q-34 -3 -58 -18t-35.5 -31.5t-33.5 -55.5l-289 -522q-14 -32 -14 -86v-402q0 -48 26.5 -70t86.5 -22h55q16 0 16 -16v-39l-4 -4q-178 4 -258 4l-264 -4l-4 4v39q0 16 16 16h54q60 0 86 23.5t26 68.5zM696 1538 q0 38 28 65t67 27q38 0 65 -27t27 -65t-27 -66t-65 -28q-39 0 -67 28t-28 66zM369 1538q0 38 27 65t65 27t66 -27t28 -65t-28 -66t-66 -28t-65 28t-27 66z" />
<glyph unicode="&#x2c6;" horiz-adv-x="714" d="M416 1368q67 -109 207 -264l-43 -29q-148 111 -218 185q-91 -95 -219 -185l-41 29q149 165 211 264h103z" />
<glyph unicode="&#x2dc;" horiz-adv-x="598" d="M428 1266q36 0 59 22t43 84l50 -12q-37 -184 -179 -184q-52 0 -131 53q-76 45 -110 45q-39 0 -62 -23t-39 -75l-49 10q22 93 60.5 137.5t103.5 44.5t148 -57q58 -45 106 -45z" />
<glyph unicode="&#x2000;" horiz-adv-x="839" />
<glyph unicode="&#x2001;" horiz-adv-x="1679" />
<glyph unicode="&#x2002;" horiz-adv-x="839" />
<glyph unicode="&#x2003;" horiz-adv-x="1679" />
<glyph unicode="&#x2004;" horiz-adv-x="559" />
<glyph unicode="&#x2005;" horiz-adv-x="419" />
<glyph unicode="&#x2006;" horiz-adv-x="279" />
<glyph unicode="&#x2007;" horiz-adv-x="279" />
<glyph unicode="&#x2008;" horiz-adv-x="209" />
<glyph unicode="&#x2009;" horiz-adv-x="335" />
<glyph unicode="&#x200a;" horiz-adv-x="93" />
<glyph unicode="&#x2010;" horiz-adv-x="681" d="M561 483h-463q-13 0 -21.5 10.5t-8.5 24.5q0 25 16.5 50.5t34.5 25.5h469q28 0 28 -37q0 -19 -18 -46.5t-37 -27.5z" />
<glyph unicode="&#x2011;" horiz-adv-x="681" d="M561 483h-463q-13 0 -21.5 10.5t-8.5 24.5q0 25 16.5 50.5t34.5 25.5h469q28 0 28 -37q0 -19 -18 -46.5t-37 -27.5z" />
<glyph unicode="&#x2013;" horiz-adv-x="1093" d="M121 487q-29 0 -29 35q0 20 18 43t35 23h828q28 0 28 -35q0 -20 -17 -43t-36 -23h-827z" />
<glyph unicode="&#x2014;" horiz-adv-x="1519" d="M59 588h1401v-101h-1401v101z" />
<glyph unicode="&#x2018;" horiz-adv-x="548" d="M285 1038q-61 0 -98 55.5t-37 147.5q0 102 73 174t172 90q21 -17 11 -51q-74 -19 -125.5 -72t-51.5 -90q0 -32 20 -45.5t54 -17.5q90 -15 90 -90q0 -44 -30.5 -72.5t-77.5 -28.5z" />
<glyph unicode="&#x2019;" horiz-adv-x="548" d="M264 1430q61 0 98 -55.5t37 -147.5q0 -102 -73 -174t-172 -90q-21 17 -11 51q74 18 125 71t51 91q0 56 -73 63q-90 15 -90 90q0 43 30.5 72t77.5 29z" />
<glyph unicode="&#x201a;" horiz-adv-x="548" d="M264 195q61 0 98 -55.5t37 -147.5q0 -102 -73 -174t-172 -90q-21 17 -11 51q74 18 125 71t51 91q0 56 -73 63q-90 15 -90 90q0 44 30.5 72.5t77.5 28.5z" />
<glyph unicode="&#x201c;" horiz-adv-x="768" d="M555 1040q-61 0 -98 55.5t-37 147.5q0 102 73.5 174t172.5 90q20 -17 10 -51q-74 -18 -125 -71t-51 -91q0 -55 73 -63q36 -6 63.5 -27t27.5 -63q0 -44 -31 -72.5t-78 -28.5zM233 1040q-61 0 -98 55.5t-37 147.5q0 102 73.5 174t172.5 90q20 -17 10 -51 q-73 -18 -124.5 -71.5t-51.5 -90.5q0 -32 20 -45.5t54 -17.5q90 -15 90 -90q0 -44 -30.5 -72.5t-78.5 -28.5z" />
<glyph unicode="&#x201d;" horiz-adv-x="768" d="M215 1430q61 0 98 -55.5t37 -147.5q0 -102 -73.5 -174t-172.5 -90q-20 17 -10 51q74 18 125 71t51 91q0 56 -73 63q-36 6 -63.5 27t-27.5 63q0 43 31 72t78 29zM537 1430q61 0 98 -55.5t37 -147.5q0 -102 -73.5 -174t-172.5 -90q-20 17 -10 51q73 18 124.5 71.5 t51.5 90.5q0 32 -20 45.5t-54 17.5q-90 15 -90 90q0 43 30.5 72t78.5 29z" />
<glyph unicode="&#x201e;" horiz-adv-x="768" d="M215 193q61 0 98 -55.5t37 -147.5q0 -102 -73.5 -174t-172.5 -90q-20 17 -10 51q74 18 125 71t51 91q0 56 -73 63q-36 6 -63.5 27t-27.5 63q0 44 31 72.5t78 28.5zM537 193q61 0 98 -55.5t37 -147.5q0 -102 -73.5 -174t-172.5 -90q-20 17 -10 51q73 18 124.5 71.5 t51.5 90.5q0 32 -20 45.5t-54 17.5q-90 15 -90 90q0 44 30.5 72.5t78.5 28.5z" />
<glyph unicode="&#x2022;" horiz-adv-x="718" d="M100 479q0 105 78.5 180.5t179.5 75.5q105 0 182.5 -76.5t77.5 -185.5q0 -101 -72.5 -179.5t-187.5 -78.5q-106 0 -182 77t-76 187z" />
<glyph unicode="&#x2026;" horiz-adv-x="1533" d="M117 88q0 44 32 76.5t76 32.5q45 0 77 -32.5t32 -76.5t-32 -76t-77 -32q-44 0 -76 32t-32 76zM659 88q0 44 32.5 76.5t76.5 32.5t76.5 -32.5t32.5 -76.5t-32.5 -76t-76.5 -32t-76.5 32t-32.5 76zM1200 88q0 44 32 76.5t77 32.5q44 0 76 -32.5t32 -76.5t-32 -76t-76 -32 q-45 0 -77 32t-32 76z" />
<glyph unicode="&#x202f;" horiz-adv-x="335" />
<glyph unicode="&#x2039;" horiz-adv-x="727" d="M590 881v-111q-148 -209 -287 -330q127 -101 287 -327v-111q-249 290 -451 399v80q215 148 451 400z" />
<glyph unicode="&#x203a;" horiz-adv-x="727" d="M139 0v111q151 210 287 329q-128 103 -287 328v111q249 -289 451 -400v-80q-213 -146 -451 -399z" />
<glyph unicode="&#x205f;" horiz-adv-x="419" />
<glyph unicode="&#x20ac;" horiz-adv-x="897" d="M29 625l2 18l39 51h53q28 228 145 359t291 131q57 0 140 -15.5t118 -15.5q2 -97 41 -299l-61 -8q-14 56 -31.5 99.5t-45 83.5t-69.5 61.5t-96 21.5q-77 0 -135.5 -56.5t-90.5 -148.5t-42 -213h452l-37 -69h-419v-37v-68h385l-37 -69h-344q16 -199 86 -292t196 -93 q44 0 78 12.5t55.5 30.5t40.5 52.5t29.5 63t26.5 78.5l65 -16q-55 -194 -69 -277q-22 0 -104 -15t-140 -15q-182 0 -294.5 124t-135.5 347h-121v18l41 51h76q-2 15 -2 43q0 41 2 62h-88z" />
<glyph unicode="&#x2122;" horiz-adv-x="1628" d="M424 698q0 -49 61 -49h29q10 0 10 -10v-27l-2 -2q-129 2 -170 2l-168 -2l-2 2v27q0 10 11 10h28q34 0 49 11t15 38v543q0 24 -6.5 32.5t-22.5 8.5h-104q-34 0 -49 -18.5t-31 -85.5l-45 12l39 184l49 -16q-1 -2 -2 -8t-2 -10.5t-2 -4.5h477q-1 0 -2 4.5t-2 10.5t-2 8 l51 16l39 -186l-47 -10q-18 68 -33 86t-49 18h-88q-17 0 -23 -8.5t-6 -34.5v-541zM1380 705l-34 403l-203 -498q-7 -20 -33 -20q-24 0 -35 20l-205 488q-16 -260 -28 -396v-12q0 -47 14 -47h31q35 0 35 -14v-17l-7 -12q-79 4 -124 4l-97 -4l-10 12v17q0 14 37 14h29 q13 0 22 62q6 85 20.5 269.5t20.5 274.5v6v5q0 34 -18 34h-33q-35 3 -35 13v16l10 12h183l229 -542l219 542h168l6 -12v-16q0 -13 -35 -13h-30q-19 0 -19 -32v-13l47 -544q4 -31 9 -46.5t16 -15.5h29q38 0 38 -14v-17l-12 -12q-90 4 -133 4l-135 -4l-12 12v17q0 14 34 14h29 q12 0 12 47v15z" />
</font>
</defs>
</svg>
