<?xml version="1.0" standalone="no"?>
<!DOCTYPE svg PUBLIC "-//W3C//DTD SVG 1.1//EN" "http://www.w3.org/Graphics/SVG/1.1/DTD/svg11.dtd" >
<svg xmlns="http://www.w3.org/2000/svg">
<metadata>
This is a custom SVG webfont generated by Font Squirrel.
Designer    : Philipp H. Poll
Foundry     : Philipp H. Poll
Foundry URL : http://linuxlibertine.sf.net
</metadata>
<defs>
<font id="webfontdofsXqti" horiz-adv-x="897" >
<font-face units-per-em="2048" ascent="1638" descent="-410" />
<missing-glyph horiz-adv-x="512" />
<glyph unicode=" "  horiz-adv-x="512" />
<glyph unicode="&#x09;" horiz-adv-x="512" />
<glyph unicode="&#xa0;" horiz-adv-x="512" />
<glyph unicode="!" horiz-adv-x="464" d="M180 82q10 45 47.5 76.5t81.5 31.5q40 0 66 -25.5t26 -64.5q0 -3 -1 -9t-1 -9q-8 -45 -45.5 -77t-83.5 -32q-40 0 -66 26t-26 64q0 4 1 10t1 9zM516 1362q38 0 65 -29t27 -82q0 -24 -4 -39q-10 -59 -27.5 -116t-46.5 -137t-49 -144q-69 -238 -96 -371q-11 -41 -37 -41 q-24 0 -24 23v4q31 313 36 385q7 77 7 139q0 17 -1 47t-1 43q0 90 14 168q14 75 55 112.5t82 37.5z" />
<glyph unicode="&#x22;" horiz-adv-x="688" d="M596 874q2 326 6 345q5 36 42 69t81 33q31 0 45 -15.5t14 -37.5v-15q-3 -14 -36 -107l-65 -178l-32 -85zM336 872q4 326 6 345q7 37 43.5 69.5t81.5 32.5q31 0 45 -15.5t14 -37.5q0 -11 -2 -15q-3 -14 -36 -107l-65 -178l-32 -85z" />
<glyph unicode="#" d="M770 698l-76 -225h185l-31 -98h-184l-119 -348h-68l117 348h-225l-117 -348h-68l115 348h-184l32 98h187l74 225h-185l33 101h186l115 348h70l-117 -348h225l117 348h68l-117 -348h184l-33 -101h-184zM629 473l73 225h-225l-76 -225h228z" />
<glyph unicode="$" d="M188 20q-13 0 -31.5 -11t-41.5 -11q14 78 26 301l56 6q5 -65 29 -119.5t72 -93.5t114 -47l96 496q-43 21 -72.5 38t-70.5 50t-64 67t-35.5 84.5t-1.5 108.5q13 63 52.5 116t93 86t110.5 53t111 25l22 115h70l-23 -113q39 -2 122.5 -11t113.5 -5q-12 -77 -16 -293l-56 -8 l-4 37q-9 104 -49 157t-123 60l-84 -438q319 -128 277 -351q-5 -21 -10.5 -40t-20.5 -54t-33.5 -64t-51.5 -63t-72.5 -58t-97.5 -42t-126 -21l-29 -143h-69l28 141q-62 5 -128.5 25t-82.5 20zM573 514l-92 -469q35 5 69.5 18.5t70 37.5t62.5 65t38 94q6 30 6.5 56.5t-5 48 t-13.5 39.5t-21 32.5t-25.5 26t-29.5 21.5t-30 16.5t-30 13.5zM539 698l79 410q-78 -13 -140.5 -68.5t-80.5 -142.5q-22 -115 142 -199z" />
<glyph unicode="%" horiz-adv-x="1304" d="M899 158q0 -72 28.5 -105t63.5 -33q54 0 98.5 53t66.5 121t22 128q0 37 -10 63.5t-26 38.5t-30 17t-27 5q-47 0 -91.5 -48t-69.5 -114.5t-25 -125.5zM795 186q0 122 80 224t190 102q33 0 62 -9t55.5 -28.5t41.5 -57.5t15 -91q0 -55 -17.5 -116.5t-48.5 -118t-82.5 -93.5 t-111.5 -37q-87 0 -135.5 68.5t-48.5 156.5zM893 1055q82 0 166 24.5t141 85.5l68 -43l-983 -1151l-76 19l876 1028q-93 -39 -211 -39q-37 0 -86.5 13t-78.5 30q6 -24 6 -51q0 -52 -17 -113t-48 -118t-82.5 -94.5t-112.5 -37.5q-90 0 -138.5 67t-48.5 156q0 121 81 223.5 t190 102.5q40 0 79 -16t56 -35q110 -51 219 -51zM373 803q0 -72 28.5 -103.5t65.5 -31.5q52 0 96 51t66 119.5t22 130.5q0 67 -28 95t-64 28q-47 0 -91 -47.5t-69.5 -114.5t-25.5 -127z" />
<glyph unicode="&#x26;" horiz-adv-x="1443" d="M889 1249q-65 0 -129 -64.5t-64 -152.5q0 -59 41 -188q262 155 262 299q0 51 -28 78.5t-82 27.5zM1135 1139q0 -54 -33.5 -110t-91 -105t-116.5 -88t-126 -74q2 -4 14.5 -32.5t27 -58.5t54.5 -105l97 -177q276 323 276 399q0 23 -25 23h-59q-11 0 -6 14l6 35l4 4 q107 -4 176 -4l180 4l3 -4l-7 -33q-3 -16 -20 -16h-57q-31 0 -58.5 -17t-62.5 -61t-70 -94l-103 -141l-139 -179l54 -92q34 -65 69.5 -100t63.5 -35q97 0 178 117l27 -16q-51 -104 -115.5 -157.5t-122.5 -53.5q-28 0 -49.5 4t-50 17t-56 43t-53.5 77l-47 78 q-96 -106 -196.5 -162.5t-221.5 -56.5q-155 0 -246.5 64.5t-91.5 201.5q0 156 107 276.5t354 247.5q-55 135 -55 227q0 140 108.5 230t255.5 90q99 0 161.5 -49.5t62.5 -130.5zM637 696q-40 -20 -69.5 -37t-72.5 -46.5t-73.5 -63.5t-59.5 -77.5t-44 -100.5t-15 -121 q0 -102 56 -150.5t147 -48.5q53 0 97 13.5t88 45.5t78.5 65.5t88.5 94.5l-141 259q-71 136 -80 167z" />
<glyph unicode="'" horiz-adv-x="389" d="M315 872q4 326 9 345q5 36 41.5 69t80.5 33q32 0 46 -15.5t14 -37.5v-15q-3 -14 -36 -107l-65 -178l-32 -85z" />
<glyph unicode="(" horiz-adv-x="604" d="M209 0q-45 148 -45 315q0 94 16 201q48 273 211 514q167 253 389 418l31 -37q-189 -176 -305 -403q-120 -231 -166 -492q-27 -162 -27 -280q0 -115 19 -213q36 -228 162 -406l-43 -35q-178 184 -242 418z" />
<glyph unicode=")" horiz-adv-x="638" d="M649 1032q45 -148 45 -315q0 -92 -16 -201q-52 -278 -211 -516q-166 -250 -389 -416l-31 35q188 177 305 406q120 229 166 491q27 152 27 281q0 111 -19 213q-36 228 -161 405l43 35q176 -183 241 -418z" />
<glyph unicode="*" horiz-adv-x="886" d="M610 1161q-32 8 -86 8q-75 0 -113 14t-38 50v12q5 25 25 43.5t53 18.5q24 0 46 -11.5t38 -27t42.5 -35t53.5 -31.5v23q0 31 -9.5 78t-9.5 65q0 4 1 11t1 12q7 33 29 56t49 23q26 0 41 -14t15 -41v-16q-6 -29 -37 -99.5t-39 -99.5q39 16 81 44.5t73 45.5t61 17 q57 0 57 -54v-8q-12 -76 -153 -76q-64 0 -113 -8q16 -22 42 -44.5t46 -37t35.5 -36t15.5 -44.5q0 -10 -2 -16q-4 -26 -25.5 -42.5t-44.5 -16.5q-35 0 -52.5 33t-30.5 93.5t-25 86.5q-20 -27 -56 -91t-63 -93t-61 -29q-23 0 -37 14t-14 35v8q7 39 38 65.5t83.5 56.5t82.5 58z " />
<glyph unicode="+" horiz-adv-x="1079" d="M684 524h354l-18 -100h-354l-64 -354h-100l63 354h-354l16 100h357l61 357h100z" />
<glyph unicode="," horiz-adv-x="448" d="M127 92q0 46 36 74.5t85 28.5q48 0 79 -36t31 -96q0 -35 -7.5 -71.5t-28 -79t-52.5 -77.5t-85.5 -64t-121.5 -41q-24 18 -18 47q80 17 147.5 75t67.5 103q0 17 -10.5 28.5t-21 15.5t-31.5 9q-70 18 -70 84z" />
<glyph unicode="-" horiz-adv-x="681" d="M647 483h-465q-10 0 -17 8.5t-7 20.5q2 4 2 6q5 25 26 50.5t37 25.5h469q23 0 23 -25v-12q-3 -19 -26 -46.5t-42 -27.5z" />
<glyph unicode="." horiz-adv-x="448" d="M256 195q40 0 67 -26t27 -65q0 -48 -37.5 -87.5t-89.5 -39.5q-40 0 -67 27.5t-27 67.5q0 44 37 83.5t90 39.5z" />
<glyph unicode="/" horiz-adv-x="595" d="M823 1397l-737 -1440h-86l739 1440h84z" />
<glyph unicode="0" d="M680 1112q-30 0 -59.5 -12t-67 -49.5t-71 -97t-68.5 -163.5t-62 -241q-26 -147 -26 -250q0 -256 139 -256q17 0 38.5 6.5t52.5 24t63.5 56.5t58.5 95q58 122 99.5 310.5t41.5 312.5q0 172 -59 233q-28 31 -80 31zM451 -25q-128 0 -198.5 115t-70.5 295q0 92 19 184 q53 275 197 445t294 170q64 0 120 -37t91 -98q62 -109 62 -267q0 -90 -21 -194q-25 -131 -70.5 -238t-98 -175t-112 -114.5t-112.5 -66t-100 -19.5z" />
<glyph unicode="1" d="M608 971q-41 0 -99 -7t-89 -22l-6 66q89 24 161 53.5t114.5 53.5t113.5 69h39l-201 -1030q-1 -9 -3.5 -26t-2.5 -24q0 -25 14 -35t51 -10h109q6 0 10.5 -4t1.5 -12l-8 -45l-281 4l-282 -4l6 45q8 13 10 14q4 2 10 2h121q28 0 46 5.5t28 20.5t14.5 28t10.5 41l137 704 q6 40 6 66q0 47 -31 47z" />
<glyph unicode="2" d="M295 907q19 99 126.5 188t256.5 89q55 0 104.5 -13t92.5 -39.5t68.5 -74.5t25.5 -111q0 -51 -19.5 -103.5t-43.5 -89.5t-66.5 -81.5t-67.5 -65.5l-67 -57l-232 -189l-16 -15l-35 -32q-18 -17 -42 -43t-43.5 -50t-35.5 -51.5t-20 -49.5h346q53 0 89.5 32t74.5 115l51 -8 l-92 -258h-633q11 65 32 112.5t82 119.5t170 165l174 150q53 45 87 79t71.5 83t56.5 104.5t19 116.5q0 91 -51 140.5t-107 49.5q-95 0 -145 -38t-57 -85q-3 -10 -3 -47q6 -26 0 -45q-7 -37 -33 -55.5t-55 -18.5t-47 17.5t-18 44.5q0 10 2 14z" />
<glyph unicode="3" d="M195 170q22 0 36.5 -9.5t22 -24.5t18 -31.5t23.5 -31.5t40 -24.5t66 -9.5q49 0 106.5 29t108 78.5t84 126.5t33.5 163q0 182 -221 182q-16 0 -66 -8l3 62q114 18 221.5 115t107.5 202q0 63 -39 97t-98 34q-22 0 -51 -7t-63.5 -22.5t-62 -47.5t-36.5 -76q-6 -36 -28 -68.5 t-58 -32.5q-47 0 -47 54q0 20 12.5 50.5t43.5 68.5t74.5 70t114 53.5t154.5 21.5q117 0 169 -51t52 -121q0 -34 -8.5 -65t-31 -71t-73 -83.5t-124.5 -85.5q86 -13 148.5 -72.5t62.5 -167.5q0 -87 -37 -173.5t-102.5 -158t-166.5 -116t-218 -44.5q-90 0 -172 34.5t-82 84.5 q0 29 27 52.5t57 23.5z" />
<glyph unicode="4" d="M674 727q9 32 26 41q59 35 99 35q22 0 22 -25q0 -14 -6 -39l-70 -329h168l-30 -97h-156l-37 -170q-4 -32 -4 -41q0 -23 13 -34t44 -11h54q8 0 11 -5t1 -9l-8 -45q-133 4 -217 4l-199 -4l8 45q0 4 4 9t13 5h57q44 0 60 18.5t26 67.5l37 170h-404q-8 0 -14 13l-12 22 l-17 43v4q0 2 4 6q110 100 303 358.5t289 414.5q7 10 19 10l12 -5q11 -5 26.5 -10.5t26.5 -7.5q-183 -321 -538 -751h323z" />
<glyph unicode="5" d="M422 45q126 0 207.5 109.5t81.5 265.5q0 112 -54 177t-137 65q-131 0 -256 -48l174 560q107 -11 207 -11q140 0 326 21l10 -6l-57 -134q-102 -10 -205 -10q-100 0 -232 17l-100 -324q87 31 203 31q88 0 152 -46t93 -116t29 -154q0 -85 -31 -167.5t-87.5 -149.5 t-146 -108.5t-196.5 -41.5q-56 0 -119.5 17.5t-110 50t-46.5 68.5q0 27 23.5 51t58.5 24q23 0 41 -14.5t31.5 -35t30 -41.5t44.5 -35.5t66 -14.5z" />
<glyph unicode="6" d="M500 35q57 0 105.5 36.5t78.5 92.5t47 119.5t17 122.5q0 223 -185 223q-119 0 -221 -92q-31 -124 -31 -236q0 -60 11.5 -107.5t30.5 -76.5t44.5 -48t50.5 -26.5t52 -7.5zM899 430q0 -55 -15.5 -115t-50 -121t-83 -109.5t-122.5 -79t-161 -30.5q-42 0 -81 8.5t-79.5 31.5 t-70.5 59t-49 96t-19 137q0 35 3 72t20.5 118t48.5 155t96 166t153 167q117 99 237 145t273 54l-4 -64q-113 -10 -202.5 -41t-171.5 -98q-181 -148 -263 -387q44 42 121 71t137 29q68 0 120.5 -17t82.5 -43.5t48.5 -63t25 -70t6.5 -70.5z" />
<glyph unicode="7" d="M510 1040q-65 0 -102.5 -29.5t-83.5 -111.5l-54 8q73 149 105 277h45q0 -23 55 -23h391q111 0 152 13l26 -15q-361 -598 -671 -1177l-133 -7l-4 13l641 1052h-367z" />
<glyph unicode="8" d="M610 705q74 47 121 87.5t66.5 73.5t25.5 54t6 47q0 64 -45.5 116t-121.5 52q-91 0 -152 -66t-61 -147q0 -96 110 -179zM954 973q0 -38 -13.5 -72.5t-35 -62.5t-60 -59t-77.5 -56.5t-98 -60.5l102 -72q105 -80 105 -213q0 -69 -28.5 -139t-80.5 -129t-134.5 -96.5 t-180.5 -37.5q-139 0 -226.5 62t-87.5 174q0 63 20.5 119t48 94.5t77 80.5t84.5 65l94 59l-29 22q-66 51 -97.5 101t-31.5 112q0 131 106 225.5t271 94.5q123 0 197.5 -60.5t74.5 -150.5zM526 588q-111 -67 -185.5 -163t-74.5 -198q0 -48 20 -87t51.5 -61t65.5 -34t66 -12 q121 0 192.5 84t71.5 202q0 126 -123 209z" />
<glyph unicode="9" d="M614 1124q-75 0 -133.5 -62t-86 -145t-27.5 -163q0 -224 184 -224q117 0 221 93q31 121 31 235q0 60 -11.5 107.5t-30.5 76.5t-44.5 48t-50.5 26.5t-52 7.5zM215 729q0 55 15.5 115t50 121t83 109.5t122.5 79t161 30.5q42 0 81 -8.5t79.5 -31.5t70.5 -59t49 -96t19 -137 q0 -35 -3 -72t-20.5 -118t-48.5 -155t-96 -166t-153 -167q-117 -98 -236.5 -144.5t-273.5 -54.5l4 64q113 10 203 40.5t172 98.5q180 148 262 387q-44 -42 -121 -71t-137 -29q-68 0 -120.5 17t-82.5 43.5t-48.5 63t-25 70t-6.5 70.5z" />
<glyph unicode=":" horiz-adv-x="448" d="M385 834q40 0 67 -26t27 -65q0 -48 -37.5 -87.5t-89.5 -39.5q-40 0 -67 27.5t-27 67.5q0 44 37 83.5t90 39.5zM291 297q40 0 67 -26t27 -64q0 -48 -37.5 -87.5t-89.5 -39.5q-40 0 -67 27t-27 67q0 44 37 83.5t90 39.5z" />
<glyph unicode=";" horiz-adv-x="448" d="M383 834q40 0 67 -26t27 -65q0 -48 -37.5 -87.5t-89.5 -39.5q-40 0 -67 27.5t-27 67.5q0 44 37 83.5t90 39.5zM145 92q0 46 36.5 74.5t84.5 28.5q49 0 80 -36t31 -96q0 -35 -7.5 -71.5t-28.5 -79t-52.5 -77.5t-85 -64t-121.5 -41q-26 20 -16 47q78 18 145.5 76t67.5 102 q0 17 -10.5 28.5t-21.5 15.5t-32 9q-70 18 -70 84z" />
<glyph unicode="&#x3c;" horiz-adv-x="997" d="M336 489l606 -237l-16 -102l-748 290l17 99l849 288l-18 -102z" />
<glyph unicode="=" horiz-adv-x="1079" d="M1016 395l-19 -100h-811l19 100h811zM1061 651l-19 -100h-811l19 100h811z" />
<glyph unicode="&#x3e;" horiz-adv-x="997" d="M834 483l-607 238l19 102l747 -291l-16 -98l-850 -289l16 103z" />
<glyph unicode="?" horiz-adv-x="829" d="M465 195q40 0 67 -26t27 -65q0 -48 -37.5 -87.5t-89.5 -39.5q-40 0 -67 27.5t-27 67.5q0 44 37 83.5t90 39.5zM299 1065q0 39 24.5 86t70.5 92.5t124.5 76t173.5 30.5q138 0 220.5 -67t82.5 -179q0 -81 -34 -150t-87 -116t-107 -84l-105 -74q-51 -36 -70 -64 q-47 -65 -66 -149l-14 -90q-3 -21 -31 -21q-11 0 -17 5t-5 16l16 94q15 78 43 140t60.5 101.5t68.5 71.5l69 62q34 28 61 59.5t43 76.5t16 103q0 85 -49.5 144t-124.5 59q-99 0 -156 -42t-57 -93q0 -18 10 -35q6 -12 6 -28q0 -34 -26 -63.5t-70 -29.5q-28 0 -49 15.5 t-21 52.5z" />
<glyph unicode="@" horiz-adv-x="1697" d="M1221 647q12 57 -17.5 93t-81.5 36q-33 0 -86.5 -19.5t-101.5 -62.5q-159 -137 -207 -362q-38 -189 109 -189q49 0 128.5 77.5t145.5 189.5q33 51 66 119.5t45 117.5zM1141 152q-2 -10 1 -16t6.5 -7.5t6.5 -1.5q77 0 137.5 20.5t113.5 69.5t93 135t66 211q30 158 2.5 276 t-99.5 196t-161 116.5t-183 38.5q-89 0 -179.5 -25t-181.5 -80.5t-167.5 -135t-137.5 -197t-91 -258.5q-15 -69 -20.5 -138.5t0.5 -144.5t25 -141.5t57.5 -127t93 -104t137 -69t184.5 -25.5q227 0 411 135l19 -37q-118 -82 -225.5 -124t-255.5 -42q-133 0 -243.5 39.5 t-185 110t-121.5 168t-54 214.5t18 249q46 216 190 399t346 289t414 106q202 0 344.5 -88t200 -241.5t16.5 -343.5q-16 -74 -48 -144.5t-87.5 -140.5t-127 -122t-174.5 -84t-222 -32q-36 0 -46.5 27t-2.5 57q8 40 55 129l-4 2q-82 -105 -162 -158t-135 -53q-54 0 -93 19 t-58 46.5t-27.5 63.5t-8 66.5t6.5 58.5q22 106 84 205.5t141 168.5t167.5 111t164.5 42q47 0 84 -24.5t43 -63.5l20 49l107 26l24 -10l-225 -528q-49 -120 -53 -137z" />
<glyph unicode="A" horiz-adv-x="1439" d="M330 147q-19 -24 -19 -47q0 -43 88 -43h60q12 0 12 -16l-6 -39l-4 -4q-203 4 -252 4l-184 -4l-5 4l9 39q3 16 18 16h25q60 0 97.5 26.5t70.5 82.5l675 1120q43 70 68 70q26 0 38 -14.5t21 -55.5l224 -1110q12 -62 41.5 -90.5t89.5 -28.5h22q6 0 11.5 -5t5.5 -11l-6 -39 l-9 -4q-153 4 -233 4l-275 -4l-4 4l9 39q3 16 18 16h57q49 0 78 17t29 51q0 14 -2 22l-70 353h-430q-60 0 -82 -35zM649 580h365l-105 546l-303 -510q-6 -12 -6 -18q0 -18 49 -18z" />
<glyph unicode="B" horiz-adv-x="1247" d="M1266 440q0 -68 -18 -129t-62 -119t-111 -100.5t-172 -68t-237 -25.5q-85 0 -184.5 2t-119.5 2l-262 -4l6 41q8 16 19 16h61q60 0 87 20.5t34 74.5l182 1028q5 20 5 32q0 32 -21.5 46t-73.5 14h-59q-14 2 -14 14l8 41l21 -1q21 0 53 -1l68 -2q34 -1 68 -1.5t52 -0.5 q34 0 128 2t130 2q401 0 401 -252q0 -57 -20 -110t-48 -88.5t-64.5 -66t-62 -45.5t-48.5 -26q254 -59 254 -295zM641 68q98 0 176 24.5t126.5 63t81 89.5t45.5 99t13 96q0 117 -82.5 184.5t-238.5 67.5h-193l-96 -545q-4 -20 -4 -28q0 -32 33 -41.5t139 -9.5zM743 764 q101 0 174 28.5t110.5 75.5t54 95.5t16.5 101.5q0 186 -242 186q-58 0 -88 -1.5t-54 -4.5t-34 -12.5t-15.5 -20.5t-9.5 -34l-73 -414h161z" />
<glyph unicode="C" horiz-adv-x="1339" d="M745 -25q-139 0 -246 43.5t-171.5 119.5t-96.5 170.5t-32 203.5q0 66 12 133q26 148 104 280t184 224t234 145.5t254 53.5q85 0 156 -14.5t109.5 -32t83 -32t83.5 -14.5l-12 -337l-66 -9q-4 65 -17 116t-41 99t-70 79.5t-109 50t-154 18.5q-51 0 -113 -20.5t-131.5 -67.5 t-130 -113t-110 -167t-70.5 -220q-14 -71 -14 -152q0 -76 13.5 -144.5t43.5 -129t73 -104.5t106.5 -69.5t140.5 -25.5q142 0 262.5 53.5t251.5 174.5l41 -31q-127 -136 -273.5 -208.5t-294.5 -72.5z" />
<glyph unicode="D" horiz-adv-x="1480" d="M473 147q-2 -8 -2 -22q0 -35 41.5 -46t171.5 -11q150 0 266.5 41t187.5 106t117 156t63 181t17 191q0 82 -16 155t-52.5 139.5t-92 114t-140 75.5t-190.5 28q-89 0 -134.5 -15t-54.5 -64zM106 39q5 18 21 18h59q58 0 86 21.5t37 71.5l180 1024q5 16 5 36q0 32 -20.5 44 t-72.5 12h-59q-14 0 -14 14q4 29 8 43l260 -2q61 0 176 1t160 1q173 0 309.5 -75.5t211.5 -206.5t75 -291q0 -150 -54 -285.5t-153.5 -239.5t-251.5 -165.5t-336 -61.5q-121 0 -235.5 2t-135.5 2l-262 -4z" />
<glyph unicode="E" horiz-adv-x="1159" d="M942 1241h-276q-38 0 -58.5 -14.5t-27.5 -50.5l-76 -437h278q51 0 76 21.5t43 68.5l27 62q2 6 7 11t9 5h45q6 0 6 -8q-47 -170 -51 -194q-16 -112 -16 -197l-8 -6h-48q-14 0 -14 14v64q-2 47 -20 68.5t-68 21.5h-278l-93 -523q-7 -39 9 -53t53 -14h340q56 0 102.5 20 t82.5 60t63 83t55 105l61 -10q-80 -200 -114 -338h-602l-158 2l-266 -4l8 45q5 14 18 14h62q59 0 85.5 22t34.5 68l183 1027q8 48 -12.5 70t-77.5 22h-62q-17 0 -12 14l6 43l266 -2l158 2h526q-14 -153 -14 -317l-59 -11l-10 59q-3 19 -11 51t-16 47t-22.5 36t-32 30 t-43.5 16t-58 7z" />
<glyph unicode="F" horiz-adv-x="997" d="M580 1176l-76 -437h287q50 0 75 21.5t43 68.5l27 62q4 16 16 16h45q7 0 7 -8q-37 -115 -52 -194q-12 -70 -16 -197l-8 -6h-47q-15 0 -15 14v64q-2 47 -20 68.5t-68 21.5h-286l-93 -523q-9 -48 13.5 -69t83.5 -21h53q7 0 11 -4.5t3 -11.5l-8 -39l-2 -4l-258 4l-264 -4 l-4 4l6 39q3 16 18 16h55q61 0 90 22.5t37 67.5l183 1029q8 48 -10 69t-80 21h-62q-9 0 -11.5 5t-0.5 9l6 41l6 2l256 -2l154 2h524q-12 -163 -12 -317l-62 -11q-5 38 -8.5 59t-11 51.5t-15.5 46.5t-22 36t-32 29.5t-43.5 16.5t-57.5 7h-268q-38 0 -58.5 -14.5t-27.5 -50.5z " />
<glyph unicode="G" horiz-adv-x="1452" d="M1038 1348q85 0 155.5 -14.5t107.5 -32t81 -32t84 -14.5l-14 -337l-63 -9q-5 65 -18.5 116t-41.5 99t-70.5 79.5t-108.5 50t-153 18.5q-137 0 -263 -75t-217 -213.5t-122 -313.5q-10 -58 -10 -109q0 -95 28.5 -184t83 -163.5t145.5 -119.5t206 -45q85 0 172 27.5 t147 75.5l56 313q2 8 2 24q0 66 -99 66h-55q-15 0 -12 16l8 54l4 4q178 -4 258 -4l193 4l2 -4l-8 -54q-5 -16 -21 -16h-2q-50 0 -74 -22.5t-33 -67.5l-40 -238q-3 -4 -3 -10q0 -22 25 -47q-128 -95 -267.5 -145t-312.5 -50q-134 0 -245.5 42t-185.5 114.5t-115 171 t-41 211.5q0 66 10 115q29 163 113.5 301t199 228t248.5 140t266 50z" />
<glyph unicode="H" horiz-adv-x="1497" d="M1143 147l90 517h-670l-90 -517q-2 -10 -2 -24q0 -34 23.5 -50t74.5 -16h54q17 0 14 -16l-6 -39l-4 -4q-178 4 -258 4l-265 -4l-4 4l6 39q5 16 21 16h53q61 0 90 22.5t37 67.5l182 1029q3 8 3 24q0 34 -23.5 50t-75.5 16h-53q-17 0 -14 16l6 39l4 2q178 -2 258 -2l264 2 l4 -2l-8 -39q-3 -16 -18 -16h-54q-61 0 -90.5 -22.5t-38.5 -67.5l-75 -433h669l76 433q2 8 2 24q0 34 -23.5 50t-74.5 16h-53q-18 0 -15 16l6 39l4 2q179 -2 258 -2l265 2l4 -2l-6 -39q-3 -16 -21 -16h-53q-114 0 -127 -90l-182 -1029q-2 -10 -2 -24q0 -34 23 -50t75 -16h53 q8 0 12 -4.5t2 -11.5l-6 -39l-4 -4q-178 4 -258 4l-264 -4l-4 4l6 39q3 16 21 16h53q61 0 91 22.5t38 67.5z" />
<glyph unicode="I" horiz-adv-x="663" d="M653 1176l-180 -1031q-8 -47 14 -67.5t82 -20.5h54q17 0 14 -16l-6 -39l-4 -4q-178 4 -258 4l-265 -4l-4 4l6 39q5 16 21 16h53q61 0 90 21.5t37 66.5l182 1031q8 46 -14.5 68t-81.5 22h-53q-17 0 -14 16l6 39l4 2q178 -2 258 -2l264 2l4 -2l-8 -39q-3 -16 -18 -16h-54 q-61 0 -90.5 -22.5t-38.5 -67.5z" />
<glyph unicode="J" horiz-adv-x="847" d="M891 1188q-13 -77 -35 -245.5t-22 -205.5q0 -32 19 -41t75 -14l-6 -51l-109 -10l-59 -359q-30 -179 -79.5 -310.5t-114.5 -209.5t-139 -115t-161 -37q-75 0 -136 34.5t-61 86.5q0 28 20.5 55t57.5 27q34 0 56 -10.5t41 -36.5q10 -15 16.5 -38t13 -34.5t21.5 -11.5 q196 0 293 555l67 401l-252 19v41l265 14l4 25q26 157 51 246t76 198l-2 8q-13 -6 -33 -6q-49 0 -109 25q-26 10 -79 36.5t-90 38t-77 11.5q-32 0 -53.5 -18t-21.5 -39q0 -8 16 -23t32.5 -35.5t16.5 -42.5q0 -63 -67 -63q-38 0 -57 24.5t-19 65.5q0 33 15.5 68.5t46 69.5 t85.5 55.5t125 21.5q15 0 30.5 -2t35 -7t32.5 -8t37 -12.5t34 -13t37 -16t32.5 -14.5t35.5 -16l29 -14q8 48 38.5 89.5t76.5 41.5q76 0 76 -57t-125 -141z" />
<glyph unicode="K" horiz-adv-x="1368" d="M473 147q-2 -10 -2 -24q0 -34 23.5 -50t74.5 -16h54q17 0 14 -16l-6 -39l-4 -4q-178 4 -258 4l-265 -4l-4 4l6 39q5 16 21 16h53q61 0 90 22.5t37 67.5l182 1029q3 8 3 24q0 34 -23.5 50t-75.5 16h-53q-17 0 -14 16l6 39l4 2q178 -2 258 -2l264 2l4 -2l-8 -39 q-3 -16 -18 -16h-54q-61 0 -90.5 -22.5t-38.5 -67.5l-82 -465q51 12 140 80l446 360q70 58 70 84q0 10 -17.5 20.5t-40.5 10.5h-43q-6 0 -10.5 4.5t-3.5 11.5l8 39l4 2q156 -2 238 -2l197 2l10 -2l-8 -39q-3 -16 -25 -16q-75 -10 -136 -34.5t-140 -88.5l-383 -309 q-57 -47 -77.5 -67.5t-21.5 -33.5q-5 -20 21 -51l395 -532q34 -47 67.5 -70t75.5 -23h15q7 0 12 -4.5t4 -11.5l-6 -39l-8 -4q-154 4 -234 4l-123 -4l-4 4l4 12q0 1 3.5 22t3.5 34q0 42 -25 80l-301 405q-50 68 -119 78z" />
<glyph unicode="L" horiz-adv-x="1030" d="M698 80q107 0 177 70t129 198l61 -10q-80 -199 -115 -338h-491l-160 2l-260 -4l-4 4l8 39q0 16 18 16h62q64 0 87.5 18t33.5 72l182 1029q8 47 -14.5 68.5t-81.5 21.5h-56q-6 0 -10.5 4.5t-3.5 11.5l8 39l4 2q179 -2 258 -2l265 2l4 -2l-8 -39q-5 -16 -19 -16h-53 q-61 0 -91 -22.5t-38 -67.5l-174 -994q-10 -47 11.5 -74.5t66.5 -27.5h204z" />
<glyph unicode="M" horiz-adv-x="1718" d="M1393 178l82 916l-633 -1084q-15 -22 -33 -22q-10 0 -18 6t-9 16l-262 1063l-223 -897l-6 -24q-2 -13 -2 -33q0 -60 57 -60h53q9 0 14.5 -4.5t4.5 -11.5l-6 -39l-6 -6q-107 4 -189 4l-184 -4l-2 4l6 41q3 16 22 16h56q75 0 106 117l250 1000q0 2 1 7t1 7q2 6 2 20 q0 56 -65 56h-60q-10 0 -14 4t-2 10l6 37l6 8h301l260 -1063q3 -15 7 -15q3 -1 12 13l622 1065h262l5 -8l-7 -37q-5 -16 -24 -16h-58q-39 0 -61.5 -16.5t-30.5 -55.5q0 -10 -2 -16l-88 -998q-2 -12 -2 -35q0 -41 15.5 -62.5t54.5 -21.5h53q8 0 15.5 -4.5t7.5 -11.5l-9 -41 l-4 -4q-149 4 -229 4l-219 -4l-6 4l8 41q0 16 20 16h56q66 0 84 93q4 20 4 26z" />
<glyph unicode="N" horiz-adv-x="1501" d="M1513 1141l-192 -1098q-12 -59 -55 -59q-50 3 -72 45l-557 903q-40 67 -57 67q-12 0 -19.5 -22t-17.5 -78l-127 -719q-4 -20 -4 -30q0 -95 94 -95h53q7 0 11 -4.5t3 -11.5l-8 -39l-4 -2q-145 4 -225 4l-221 -4l-15 2l6 39q2 7 12 11.5t19 4.5h53q57 0 90.5 37.5 t43.5 87.5l168 946q-4 47 -37.5 93.5t-79.5 46.5h-10q-9 0 -16.5 4.5t-6.5 11.5l6 33l8 10h267l557 -905q16 -27 35 -65t28.5 -53t18.5 -15q11 0 16 30l6 48l137 776q4 20 4 28q0 42 -21.5 69.5t-70.5 27.5h-53q-9 0 -17.5 4.5t-7.5 11.5l7 39l16 4q145 -6 219 -6l227 6 l5 -4l-9 -39q-3 -16 -18 -16h-55q-56 0 -90.5 -37t-43.5 -88z" />
<glyph unicode="O" horiz-adv-x="1325" d="M709 45q114 0 215.5 75t169 193.5t106.5 263.5t39 287q0 203 -90.5 308.5t-253.5 105.5q-90 0 -174.5 -48.5t-148.5 -129.5t-112.5 -182.5t-74 -213t-25.5 -215.5q0 -205 100 -324.5t249 -119.5zM1415 848q0 -97 -23 -198.5t-66.5 -199t-110 -183.5t-148 -151t-188 -103 t-222.5 -38q-213 0 -345 133.5t-132 360.5q0 120 36 245t105 238t159.5 202t209 141.5t244.5 52.5q219 0 350 -135.5t131 -364.5z" />
<glyph unicode="P" horiz-adv-x="1087" d="M1262 1053q0 -50 -16 -108t-57.5 -124.5t-102 -119.5t-160 -88t-221.5 -35q-90 0 -154 20l-80 -453q-2 -8 -2 -24q0 -34 23.5 -50t74.5 -16h54q14 0 14 -12v-4l-6 -39l-6 -2q-177 4 -256 4l-267 -4l-2 2l6 39q3 16 21 16h53q114 0 127 90l182 1033q2 8 2 22 q0 38 -22.5 53t-52.5 15q-11 0 -43 -2t-33 -2q-14 0 -14 12v2l6 41q22 0 219.5 10t314.5 10q94 0 166.5 -18.5t115 -46.5t70 -67.5t37 -76.5t9.5 -77zM664 1241l-105 -586q42 -10 146 -10q92 0 162.5 29t110.5 72t64.5 100.5t32.5 106t8 98.5q0 219 -245 219q-30 0 -86 -9.5 t-88 -19.5z" />
<glyph unicode="Q" horiz-adv-x="1327" d="M180 469q0 154 59 311.5t157.5 283t241 205t296.5 79.5q219 0 350 -135.5t131 -364.5q0 -102 -25 -209.5t-77.5 -214.5t-126.5 -195.5t-179.5 -154t-228.5 -88.5q-148 -45 -278 -131q12 2 37 2q71 0 143 -26.5t122 -57.5t113 -57.5t119 -26.5q108 0 180 75l29 -24 q-75 -88 -147.5 -128t-161.5 -40q-69 0 -130 20t-106 49l-85 57q-41 29 -88 49t-95 20q-30 0 -76 -27q-47 -45 -90 -94l-65 41q67 78 169.5 158t211.5 135q-183 23 -291.5 153t-108.5 336zM709 45q114 0 215.5 75t169 193.5t106.5 263.5t39 287q0 203 -90.5 308.5 t-253.5 105.5q-90 0 -174.5 -48.5t-148.5 -129.5t-112.5 -182.5t-74 -213t-25.5 -215.5q0 -205 100 -324.5t249 -119.5z" />
<glyph unicode="R" horiz-adv-x="1175" d="M1042 979q9 40 9 82q0 62 -22 107.5t-58.5 69t-76 34t-83.5 10.5q-100 0 -182 -16l-119 -607h104q226 0 322 105q81 94 106 215zM1217 1057q0 -73 -26.5 -140t-66.5 -114t-90.5 -86t-94 -61.5t-81.5 -34.5l135 -420q54 -160 148 -160q8 0 12 2v-43q-35 -12 -90 -12 q-86 0 -145 48t-87 126l-126 393q-13 27 -209 27l-84 -435q-4 -20 -4 -26q0 -33 23 -48.5t75 -15.5h53q7 0 11 -4.5t3 -11.5l-8 -39l-4 -4q-178 4 -258 4l-264 -4l-4 4l8 39q3 16 18 16h56q61 0 91 22.5t38 67.5l200 1029q5 30 5 47q0 47 -48 47q-10 0 -16 -2l-61 -6 q-9 0 -13 4t-2 10l8 39q39 9 176.5 16.5t303.5 7.5q121 0 209 -20t143 -82q66 -81 66 -180z" />
<glyph unicode="S" horiz-adv-x="972" d="M268 938q0 113 71.5 209.5t175 148.5t206.5 52q84 0 130.5 -10t83.5 -25t77 -21q-13 -106 -13 -256v-55l-65 -10q-4 40 -8.5 70t-14.5 69t-27.5 66t-42.5 52t-63.5 37.5t-87.5 12.5q-77 0 -140.5 -42.5t-95.5 -102.5t-32 -121q0 -42 19 -79t44 -61t63.5 -46.5t62 -33 t55.5 -22.5q52 -20 87 -36t78.5 -44.5t69.5 -59.5t44 -77.5t18 -101.5q0 -120 -66.5 -230.5t-178.5 -178t-237 -67.5q-88 0 -145.5 8.5t-86 17.5t-44.5 9q-21 0 -50.5 -5t-45.5 -5q16 117 22 358l64 7q14 -316 264 -316q146 0 235.5 91t89.5 237q0 47 -13.5 82t-41 60.5 t-55.5 41.5t-72 35l-59 24q-25 11 -62.5 30.5t-64 38t-56.5 46t-48.5 56.5t-31 67t-12.5 80z" />
<glyph unicode="T" horiz-adv-x="1181" d="M412 1323h866q8 0 14.5 1.5t11.5 4t9 6.5t6 7t4.5 8t3.5 7.5t2.5 7t1.5 5.5l55 8q-15 -150 -12 -315l-61 -10q-7 85 -20.5 123t-40.5 51.5t-87 13.5h-135q-57 0 -80 -17t-32 -69l-179 -1008q-9 -48 13.5 -69t83.5 -21h53q7 0 11 -4.5t3 -11.5l-6 -39l-4 -4q-180 4 -260 4 l-262 -4l-4 4l6 39q3 16 18 16h55q61 0 90 22.5t37 67.5l181 1014q7 47 -11.5 63.5t-74.5 16.5h-172q-86 0 -124.5 -33.5t-88.5 -154.5l-62 10q56 140 103 315l53 -8q-7 -9 0 -28t35 -19z" />
<glyph unicode="U" horiz-adv-x="1378" d="M469 354q0 -78 26.5 -138.5t69.5 -95t92 -52t101 -17.5q72 0 132 16.5t103.5 43t79 67.5t58.5 82t42 96t29.5 99.5t20.5 101.5l108 619q2 10 2 24q0 34 -22.5 50t-73.5 16h-55q-7 0 -11.5 4.5t-3.5 11.5l9 39l4 4q145 -6 225 -6l225 6l4 -4l-8 -39q-3 -16 -18 -16h-54 q-61 0 -90.5 -22.5t-38.5 -67.5l-102 -582q-20 -117 -49 -207t-77.5 -171.5t-115 -134.5t-163.5 -83.5t-220 -30.5q-53 0 -103.5 9.5t-105.5 35.5t-95 66t-66.5 108t-26.5 156q0 62 12 129l123 705q2 10 2 24q0 34 -22.5 50t-73.5 16h-55q-15 0 -15 16l9 39l4 4 q178 -6 258 -6l264 6l4 -4l-8 -39q-3 -16 -19 -16h-55q-61 0 -90 -22.5t-37 -67.5l-113 -635q-20 -124 -20 -187z" />
<glyph unicode="V" horiz-adv-x="1280" d="M1266 1176q26 49 26 63q0 18 -22.5 22.5t-85.5 4.5h-35q-17 0 -14 16l6 39l6 4q147 -6 227 -6l180 6l2 -4l-6 -39q-3 -16 -18 -16h-23q-44 0 -70 -10.5t-38.5 -26t-34.5 -53.5l-635 -1153q-25 -48 -57 -48t-41 48l-201 1148q-8 49 -29 70t-77 21h-27q-12 0 -12 18l6 37 l4 4q158 -6 238 -6l256 6l4 -4l-7 -37q-3 -18 -20 -18h-53q-61 0 -86 -15.5t-25 -48.5q0 -16 2 -27l127 -729l35 -178l90 172z" />
<glyph unicode="W" horiz-adv-x="1757" d="M1151 1059q25 0 42.5 -16t20.5 -48l66 -571l23 -199l108 215l346 725q17 36 17 60q0 41 -54 41h-45q-12 0 -12 14v39l6 4q111 -2 195 -2l174 2l2 -2v-39q0 -7 -6 -11t-12 -5h-7h-30q-47 0 -80.5 -22.5t-63.5 -80.5l-555 -1140q-9 -21 -25 -34.5t-34 -13.5 q-19 0 -34.5 14.5t-18.5 35.5l-84 727q-4 57 -17 57t-33 -51l-350 -733q-9 -21 -25.5 -35.5t-33.5 -14.5q-22 0 -36 13.5t-17 36.5l-140 1126q-7 46 -30 80.5t-62 34.5h-18q-25 0 -25 14v39l6 4q107 -2 185 -2l229 2l2 -4v-37q0 -16 -20 -16h-48q-51 0 -57 -41q-4 -17 2 -54 l84 -725l25 -219l96 215l221 463q38 80 67 117t56 37z" />
<glyph unicode="X" horiz-adv-x="1341" d="M920 57q69 0 69 27q0 19 -26 66l-195 385q-14 22 -25 22q-10 0 -34 -29l-344 -370q-10 -9 -25.5 -31t-15.5 -39q0 -31 53 -31h39q8 -3 8 -10v-4l-8 -41l-6 -4q-199 4 -230 4l-172 -4l-2 4l8 41q3 14 25 14q43 0 84 14.5t76.5 42t56.5 48t49 51.5l357 383q30 31 30 57 q0 18 -18 52l-213 419q-26 51 -55 83.5t-51 42.5t-40.5 13.5t-28.5 4.5t-10 8v4l9 41l10 2q29 0 113 -1t92 -1q4 0 52.5 0.5t106.5 1t86 0.5l9 -2l-9 -41q-3 -14 -12 -14h-65q-52 0 -52 -29q0 -18 23 -66l174 -360q13 -23 21 -23t30 25l334 358q45 48 45 76q0 19 -39 19h-61 q-13 0 -13 10v4l9 41l4 2q25 0 110 -1t95 -1q2 0 89 1t109 1l4 -2l-8 -41q-5 -14 -20 -14q-45 0 -81 -9.5t-68 -32t-50.5 -40.5t-52.5 -54l-338 -362q-39 -43 -39 -72q0 -28 20 -57l232 -430q78 -152 186 -152q12 0 12 -10v-4l-8 -41l-4 -4q-110 4 -215 4l-256 -4l-6 4l6 41 q4 14 17 14h43z" />
<glyph unicode="Y" horiz-adv-x="1214" d="M598 147l84 428l-231 601q-22 60 -54 79q-13 11 -55 11h-25q-8 0 -13.5 3t-4.5 11l8 41l2 2q191 -2 217 -2l236 2l2 -2l-8 -39q0 -16 -17 -16h-57q-51 0 -57 -27q-3 -19 14 -59l192 -482l353 482q32 40 35 57q0 2 1 5t1 5q0 11 -11 15t-39 4h-59q-13 0 -8 14l6 41l4 2 q162 -2 189 -2l178 2l4 -2l-8 -41q-3 -14 -23 -14h-45q-43 0 -73 -20t-68 -70l-416 -576l-88 -453q-4 -20 -4 -28q0 -62 98 -62h53q18 0 15 -16l-8 -39l-5 -4q-178 4 -258 4l-264 -4l-4 4l8 39q3 16 21 16h53q61 0 91 22.5t38 67.5z" />
<glyph unicode="Z" horiz-adv-x="1236" d="M1128 0h-1005q-21 0 -29 7.5t-6 23.5q3 20 27 47l991 1108q21 21 24 39q2 9 -3 12.5t-17 3.5h-502q-45 0 -81.5 -13t-62 -31.5t-51 -54.5t-41.5 -66t-40 -81l-60 11q60 164 107 342q28 -3 67 -14t93 -11h688q84 8 131 8q28 0 36 -4.5t5 -15.5q-3 -18 -16 -38.5t-50 -62.5 l-954 -1063q-25 -32 -25 -41q-3 -13 9 -19.5t38 -6.5h478q56 0 102.5 20t82.5 60t63 83t55 105l61 -10q-80 -199 -115 -338z" />
<glyph unicode="[" horiz-adv-x="684" d="M868 1411l-14 -88h-301l-289 -1642h299l-14 -91h-440l319 1821h440z" />
<glyph unicode="\" horiz-adv-x="657" d="M365 1430l272 -1528h-90l-273 1528h91z" />
<glyph unicode="]" horiz-adv-x="684" d="M-6 -410l14 91h301l289 1642h-299l14 88h441l-322 -1821h-438z" />
<glyph unicode="^" horiz-adv-x="1060" d="M743 1214l-299 -503h-90l369 620h86l147 -620h-90z" />
<glyph unicode="_" horiz-adv-x="995" d="M948 -225l-16 -90h-977l14 90h979z" />
<glyph unicode="`" horiz-adv-x="802" d="M616 1430l99 -256q6 -20 6 -31q0 -13 -2 -19q-2 -8 -12.5 -15t-20.5 -7q-19 0 -53 41l-195 223l8 20q3 2 16 10t23.5 13.5t26.5 12.5t35.5 10.5t40.5 3.5q19 0 28 -6z" />
<glyph unicode="a" horiz-adv-x="995" d="M840 887q18 -5 40.5 -5.5t56.5 0.5t46 1l-141 -637q-21 -102 -21 -125q0 -16 8.5 -22.5t16.5 -6.5q27 0 115 119l47 -33q-50 -80 -119 -139t-144 -59q-46 0 -64.5 27.5t-18.5 64.5q0 42 20 112l33 107l-4 4q-213 -315 -353 -315q-198 0 -198 276q0 116 50 235.5 t125.5 207.5t167.5 144t173 56q52 0 164 -12zM737 449q23 58 41 145t24 145l7 58q-63 39 -127 39q-67 0 -134.5 -55t-115.5 -137t-78 -178t-30 -177q0 -197 90 -197q49 0 149 109.5t174 247.5z" />
<glyph unicode="b" horiz-adv-x="978" d="M584 1194l-113 -506l4 -2q183 213 338 213q211 0 211 -264q0 -137 -62.5 -265t-158.5 -225q-78 -78 -168 -121.5t-176 -43.5q-62 0 -104 18.5t-81 58.5q-55 -63 -81 -82l-37 25q20 59 39 143l225 1010q14 63 14 102q0 32 -10.5 45t-32.5 13l-63 4q-11 0 -11 10l7 49 q64 5 154.5 21.5t131.5 32.5q25 0 25 -21q-23 -82 -51 -215zM860 616q0 100 -29.5 146.5t-78.5 46.5q-35 0 -74 -19t-81 -56t-74.5 -71t-76.5 -85l-104 -463q6 -32 35 -55t72 -23q121 0 241 147q65 80 117.5 198t52.5 234z" />
<glyph unicode="c" horiz-adv-x="796" d="M428 -20q-63 0 -114.5 32.5t-81.5 83t-46 105t-16 104.5q0 124 39.5 235.5t103.5 189.5t148 123.5t172 45.5q56 0 98.5 -13.5t67.5 -34t40.5 -48.5t21 -53t5.5 -52q0 -45 -31 -68.5t-57 -23.5q-38 0 -55.5 19t-17.5 47q0 30 10 43t10 39q0 44 -28 63t-58 19 q-124 0 -212.5 -133t-88.5 -353q0 -87 13.5 -146t38 -86.5t48.5 -37.5t54 -10q132 0 239 129l37 -31q-18 -26 -30.5 -42.5t-45 -47t-65.5 -49.5t-86 -34t-113 -15z" />
<glyph unicode="d" horiz-adv-x="1001" d="M727 397q39 73 56.5 143.5t17.5 116.5q0 60 -37.5 119.5t-91.5 59.5q-90 0 -171 -87.5t-126 -209.5t-45 -232q0 -52 2.5 -86t12 -71.5t31.5 -56.5t56 -19q58 0 137.5 89.5t157.5 233.5zM1069 1194l-217 -948q-21 -102 -21 -125q0 -11 5.5 -18.5t10 -9t7.5 -1.5 q19 0 45.5 26.5t77.5 88.5l41 -29q-143 -198 -262 -198q-86 0 -86 92q0 41 28 131l9 35l-7 4q-92 -137 -169 -199.5t-156 -62.5q-64 0 -108 29t-64.5 77.5t-28.5 93t-8 94.5q0 116 47.5 232.5t120 201.5t162 138t170.5 53q56 0 99 -32t62 -81h2l76 367q15 67 15 102 q0 58 -43 58l-64 4q-10 0 -10 10l6 49q64 5 155 21.5t132 32.5q24 0 24 -21z" />
<glyph unicode="e" horiz-adv-x="841" d="M748 758q0 43 -25 60.5t-82 17.5q-204 0 -291 -373q50 4 102 16.5t106 36.5t95.5 57t68 81t26.5 104zM342 408q-2 -17 -2 -70q0 -131 48.5 -195.5t123.5 -64.5q70 0 132.5 40.5t150.5 135.5l45 -33q-89 -122 -185 -181.5t-217 -59.5q-76 0 -129.5 23.5t-83 67.5 t-42.5 97.5t-13 122.5q0 80 20 163t62.5 163t101.5 142.5t146 101t188 38.5q203 0 203 -143q0 -22 -2 -38.5t-13.5 -46t-32 -53t-61.5 -54t-97 -56t-144.5 -52.5t-198.5 -48z" />
<glyph unicode="f" horiz-adv-x="622" d="M381 799h-145q-11 0 -11 4q0 7 8 35q13 41 58 41h104q32 146 79.5 254t92 163t97 87.5t85 39.5t66.5 7q106 0 158.5 -39.5t52.5 -108.5q0 -21 -17.5 -43t-56.5 -22q-43 0 -62.5 27t-27.5 69q-7 32 -18.5 44.5t-44.5 12.5q-34 0 -85 -43.5t-85 -128.5q-25 -55 -62 -203 l-22 -116h225q14 0 14 -11l-10 -45q-3 -11 -20 -17.5t-33 -6.5h-195l-6 -33q-41 -218 -69.5 -354.5t-70 -300.5t-87 -278.5t-98.5 -190.5q-91 -129 -207 -129q-50 0 -85 10.5t-51 27.5t-22 32t-6 30q0 24 17 41.5t53 17.5q37 0 67 -43q29 -41 66 -41q42 0 77 39 q42 41 95 256.5t82 405.5q29 198 49 280z" />
<glyph unicode="g" horiz-adv-x="976" d="M268 -18q-46 -33 -81 -89.5t-35 -123.5q0 -81 95 -129t265 -48q64 0 121 25t92.5 61t56.5 75t21 69q0 25 -6 44.5t-27.5 42t-57 37t-100 24.5t-151.5 10l-119 -5q-47 0 -74 7zM897 625q0 -90 -32.5 -162.5t-87 -117t-121 -68t-138.5 -23.5q-98 0 -162 43 q-65 -76 -65 -129q0 -80 104 -80q41 0 92 8q100 8 138 8q70 0 124.5 -16.5t84.5 -40.5t49.5 -54t25.5 -53t6 -42q0 -100 -67.5 -189t-185 -142.5t-254.5 -53.5q-69 0 -133 10t-125.5 32t-98.5 64.5t-37 101.5q0 85 62.5 155.5t156.5 121.5q-57 33 -57 104q0 59 40 123.5 t97 108.5q-61 95 -61 221q0 139 112 241.5t269 102.5q44 0 79.5 -10t54.5 -22t46 -33q35 40 82 64t73 29t44 5q35 0 57.5 -20t22.5 -50t-18 -48.5t-46 -18.5q-17 0 -29.5 6t-16.5 11.5t-11 16.5q-11 21 -31 21q-12 0 -38 -17t-50 -42q45 -64 45 -166zM750 625 q0 99 -34.5 159t-109.5 60q-100 0 -152.5 -84t-52.5 -209q0 -49 3.5 -82.5t16 -74t42.5 -62t76 -21.5q105 0 158 89.5t53 224.5z" />
<glyph unicode="h" horiz-adv-x="1044" d="M424 487l-105 -462l-149 -50l-10 25l260 1153q14 63 14 102q0 32 -10.5 45t-32.5 13l-63 4q-11 0 -11 10l7 49q64 5 154.5 21.5t131.5 32.5q25 0 25 -21q-21 -82 -51 -215l-129 -571q87 133 194 204.5t205 71.5q141 0 141 -160q0 -61 -28 -166l-84 -319q-25 -95 -25 -129 q0 -37 23 -37q22 0 54 28.5t87 92.5l45 -35q-159 -194 -281 -194q-38 0 -64 24t-26 68q0 53 29 166l86 319q25 94 25 150q0 45 -23 68.5t-57 23.5q-44 0 -140 -82.5t-192 -229.5z" />
<glyph unicode="i" horiz-adv-x="565" d="M553 1266q36 0 60 -22.5t24 -59.5q0 -46 -33.5 -79.5t-77.5 -33.5q-39 0 -62.5 23.5t-23.5 58.5q0 44 32.5 78.5t80.5 34.5zM502 655l-92 -401q-25 -110 -25 -133q0 -11 6.5 -18.5t11.5 -9t9 -1.5q40 0 125 113l47 -35q-75 -107 -138 -148.5t-133 -41.5q-47 0 -66.5 27.5 t-19.5 64.5q0 44 27 164l100 421q13 60 13 80q0 44 -31 47l-86 9l6 49q204 30 299 63q8 0 8 -6q-37 -139 -61 -244z" />
<glyph unicode="j" horiz-adv-x="530" d="M297 360l68 297q12 55 12 80q0 44 -31 47l-86 9l6 49q204 30 299 63q8 0 8 -6q-38 -141 -59 -244l-37 -176q-27 -135 -51.5 -238.5t-56.5 -209t-67.5 -179.5t-79.5 -134t-97.5 -89.5t-116.5 -29.5q-71 0 -115.5 24.5t-44.5 71.5q0 45 19.5 62.5t38.5 17.5q39 0 61 -23 q13 -14 25.5 -41t24 -43t28.5 -16q34 0 78 57t74 176q20 82 52 241zM563 1266q36 0 60 -22.5t24 -59.5q0 -46 -33.5 -79.5t-76.5 -33.5q-39 0 -62.5 23.5t-23.5 58.5q0 44 32.5 78.5t79.5 34.5z" />
<glyph unicode="k" horiz-adv-x="1015" d="M571 1194l-155 -702l231 198q101 89 203.5 149t134.5 60q100 0 100 -72q0 -43 -33.5 -72.5t-60.5 -29.5q-37 0 -63 14.5t-51 14.5q-59 0 -201 -123l-43 -37l166 -430q33 -90 84 -90q32 0 84 82l51 -29q-38 -73 -83 -110t-114 -37q-58 0 -100 36.5t-74 116.5l-137 356 l-119 -102l-82 -360l-149 -52l-10 25l258 1153q14 63 14 102q0 32 -10.5 45t-32.5 13l-64 4q-10 0 -10 10l6 49q64 5 155 22t132 32q25 0 25 -21q-23 -82 -52 -215z" />
<glyph unicode="l" horiz-adv-x="532" d="M586 1194l-209 -934q-27 -117 -27 -139q0 -29 25 -29q30 0 125 113l45 -35q-134 -190 -269 -190q-47 0 -66.5 27.5t-19.5 64.5q0 35 29 172l203 909q14 63 14 102q0 32 -10.5 45t-32.5 13l-63 4q-11 0 -11 10l7 49q64 5 154.5 21.5t131.5 32.5q25 0 25 -21 q-21 -82 -51 -215z" />
<glyph unicode="m" horiz-adv-x="1562" d="M479 635q101 131 189.5 197.5t191.5 66.5q25 0 46.5 -7.5t44 -26.5t35.5 -58.5t13 -95.5q0 -43 -8 -86q52 65 90 107t87 84t98.5 62.5t101.5 20.5q56 0 100.5 -47t44.5 -141q0 -46 -20 -140l-78 -329q-20 -94 -20 -121q0 -11 5.5 -18.5t10.5 -9t8 -1.5q32 0 119 119 l47 -37q-76 -108 -137.5 -151t-124.5 -43q-48 0 -68 27.5t-20 64.5q0 46 25 151l77 332q19 80 19 135q0 52 -24 80.5t-56 28.5q-51 0 -119.5 -66t-195.5 -244l-111 -464l-150 -50l-10 25l135 563q17 73 17 127q0 55 -20.5 82t-53.5 27q-112 0 -319 -301l-109 -471l-150 -52 l-10 25l154 657q12 55 12 80q0 44 -31 47l-86 9l7 49q203 30 299 63q8 0 8 -6l-62 -244l-4 -18z" />
<glyph unicode="n" horiz-adv-x="1081" d="M473 635q132 155 223.5 209.5t180.5 54.5q137 0 137 -164q0 -26 -29 -155l-78 -334q-20 -92 -20 -121q0 -37 22 -37t54.5 28t87.5 93l47 -39q-156 -190 -283 -190q-38 0 -65 22t-27 61q0 58 27 166l79 334q23 95 23 139q0 47 -20.5 72t-53.5 25q-118 0 -325 -277 l-117 -497l-150 -50l-10 25l152 657q12 55 12 80q0 44 -31 47l-86 9l6 49q204 30 299 63q9 0 9 -6l-62 -244l-4 -18z" />
<glyph unicode="o" horiz-adv-x="915" d="M332 348q0 -93 16 -156t43.5 -91.5t52.5 -39t54 -10.5q65 0 117.5 40t83 98t51.5 130t28.5 130t7.5 104q0 33 -0.5 50t-2 48t-5.5 48l-12 41q-7 25 -19 38.5t-28 27t-39.5 19.5t-52.5 6q-67 0 -120 -33t-85 -83.5t-53 -117.5t-29 -128t-8 -121zM160 332q0 76 19 153.5 t60.5 152t99 132.5t142 93.5t183.5 35.5q72 0 126 -21t84 -52.5t48.5 -78t24 -88.5t5.5 -92q0 -157 -71.5 -293.5t-188 -215t-246.5 -78.5q-74 0 -129 27t-84 64.5t-46.5 90t-22 91t-4.5 79.5z" />
<glyph unicode="p" horiz-adv-x="1001" d="M129 -330l213 946q-95 -79 -149 -149l-48 41q28 38 69.5 77.5t67 60t80.5 61.5l48 213q72 5 161 28l-24 -121q120 72 233 72q61 0 107 -15.5t75 -42.5t47.5 -67t25.5 -84t7 -98q0 -66 -23 -146.5t-69.5 -162.5t-107.5 -150t-146.5 -110.5t-177.5 -42.5q-84 0 -145 67 l-90 -377q-7 -20 -2.5 -35t9.5 -23.5t18 -14t21.5 -7.5t20.5 -4l39 -6q12 -3 12 -16v-41l-4 -4q-139 4 -219 4q-33 0 -86 -2.5t-90 -4.5l-37 -3l-4 4v39q0 12 21 16l38 6q50 8 75 29t34 63zM874 559q0 246 -159 246q-36 0 -73.5 -12t-59 -24t-56.5 -34l-135 -598 q64 -88 152 -88q59 0 113.5 40t93 100.5t67.5 131.5t43 133.5t14 104.5z" />
<glyph unicode="q" horiz-adv-x="997" d="M825 676q0 68 -33 114t-96 46q-100 0 -186 -77t-133 -194.5t-47 -240.5q0 -53 4 -90.5t16 -80t40 -65t71 -22.5q59 0 164 103t139 200q26 76 43.5 174.5t17.5 132.5zM596 -330l135 533l-6 2q-90 -125 -168 -175t-160 -50q-63 0 -110.5 30t-72.5 79t-36.5 102t-11.5 110 q0 126 51 241t129 191t169 121t173 45q119 0 197 -108l71 83q38 44 54 44t16 -25q0 -21 -2 -31l-274 -1192q-7 -20 -2.5 -35t9.5 -23.5t18 -14t21.5 -7.5t20.5 -4l39 -6q12 -3 12 -16v-41l-4 -4q-139 4 -219 4q-33 0 -86 -2.5t-90 -4.5l-37 -3l-4 4v39q0 12 21 16l38 6 q49 7 73.5 28t35.5 64z" />
<glyph unicode="r" horiz-adv-x="757" d="M473 635q66 104 153 184t152 80q53 0 87 -30.5t34 -65.5q0 -42 -25.5 -69t-66.5 -27q-34 0 -70 38q-14 17 -57 17q-33 0 -93 -70t-155 -209l-98 -458l-150 -50l-10 25l154 657q12 55 12 80q0 44 -31 47l-86 9l6 49q204 30 299 63q9 0 9 -6l-62 -244l-4 -18z" />
<glyph unicode="s" horiz-adv-x="761" d="M401 -20q-42 0 -111 12t-89 12q-16 0 -62 -4q1 17 19.5 115.5t13.5 171.5l59 6q10 -62 20.5 -101t29.5 -74.5t50.5 -52t76.5 -16.5q180 0 180 148q0 42 -29 94t-106 102q-112 74 -148.5 138t-36.5 147q0 94 78 157.5t199 63.5q77 0 132 -17t109 -55q6 -15 0 -90t-6 -94 l-59 -4q-29 100 -69 146t-120 46q-70 0 -105.5 -40t-35.5 -97q0 -93 88 -147q147 -89 203.5 -158t56.5 -147q0 -110 -90.5 -186t-247.5 -76z" />
<glyph unicode="t" horiz-adv-x="628" d="M520 799l-127 -539q-26 -121 -26 -137t9 -22.5t17 -6.5q28 0 65 28t107 116l45 -39q-104 -126 -169.5 -172.5t-131.5 -46.5q-100 0 -100 94q0 55 29 168l131 557h-144l19 80q112 0 166 59q37 52 65 178l10 39l127 41l-73 -317h227q12 0 12 -11l-10 -43q-1 -12 -18 -19 t-35 -7h-195z" />
<glyph unicode="u" horiz-adv-x="1067" d="M463 899q49 0 66.5 -18t17.5 -58q0 -48 -33 -176l-88 -338q-20 -79 -20 -133q0 -90 63 -90q71 0 151.5 98t206.5 314l91 389q56 0 153 18l-149 -645q-25 -96 -25 -139q0 -15 10 -22t17 -7q15 0 39.5 29.5t68.5 95.5l47 -33q-115 -204 -248 -204q-47 0 -67.5 28t-20.5 64 q0 46 23 129l31 114l-6 4q-113 -164 -157 -214q-89 -101 -191 -120q-28 -5 -60 -5q-62 0 -99.5 40t-37.5 123q0 61 20 138l92 350q23 81 23 123q0 28 -27 28t-125 -112l-45 35q59 80 136.5 137t142.5 57z" />
<glyph unicode="v" horiz-adv-x="927" d="M190 705q33 50 53 77.5t51 58.5t65 44.5t75 13.5q47 0 61 -34t23 -130l39 -450l2 -105l62 78l194 270q57 82 57 152q0 26 -47 59q-30 26 -30 82q0 31 28.5 54.5t59.5 23.5q41 0 72.5 -34.5t31.5 -86.5q0 -37 -4.5 -66t-31 -88t-77.5 -130l-331 -465q-22 -29 -36 -41.5 t-30 -12.5q-34 0 -37 50l-59 708q-8 62 -35 62q-32 0 -113 -129z" />
<glyph unicode="w" horiz-adv-x="1382" d="M186 711q79 103 135.5 145.5t127.5 42.5q35 0 48.5 -46.5t22.5 -147.5l35 -418l2 -94l51 88l219 385q31 45 50 45q29 0 45.5 -15t19.5 -37l94 -395l19 -102l221 368q55 98 55 150q0 22 -47 61q-31 29 -31 76q0 33 27.5 57.5t60.5 24.5q45 0 76 -34.5t31 -86.5 q0 -91 -113 -282l-282 -476q-31 -45 -64 -45q-13 0 -24.5 12.5t-14.5 30.5l-123 517l-290 -506q-34 -54 -68 -54q-13 0 -26.5 16t-14.5 36l-53 673q-5 91 -23 91q-21 0 -60 -38.5t-67 -80.5z" />
<glyph unicode="x" horiz-adv-x="972" d="M725 719q120 180 270 180q39 0 73 -23t34 -59q0 -34 -18.5 -55t-41.5 -21q-45 0 -67 15q-30 14 -74 14q-16 0 -48 -15.5t-46 -39.5l-156 -230l107 -338q11 -34 31.5 -56.5t35.5 -22.5q16 0 30.5 15t59.5 73l48 -31q-47 -78 -91 -111.5t-94 -33.5q-57 0 -102 42.5 t-70 120.5l-59 185l-127 -189q-62 -93 -108 -126t-101 -33q-42 0 -80.5 20.5t-38.5 56.5q0 34 22 56t56 22q32 0 59 -12q25 -12 56 -12q28 0 57 39l176 266l-106 338q-20 57 -62 57q-32 0 -90 -31q-10 -5 -18 -6t-12.5 1.5t-4.5 8.5q0 37 11 45q119 70 213 70q42 0 68.5 -39 t47.5 -108l58 -181z" />
<glyph unicode="y" horiz-adv-x="972" d="M152 -467q-41 0 -82 19.5t-41 62.5q0 35 24.5 64.5t89.5 29.5q22 0 50 -20q19 -21 45 -21q29 0 101.5 57t125.5 148l57 94q-67 373 -160 776q-11 48 -40 48q-31 0 -80 -56q-11 -7 -21 -3.5t-14 9.5l-19 25q103 133 195 133q50 0 79.5 -32t49.5 -113q74 -306 127 -592 l225 368q34 59 46 89t12 55q0 18 -33 51q-43 37 -43 92q0 33 26.5 57.5t59.5 24.5q40 0 72 -34.5t32 -86.5q0 -94 -112 -282l-389 -639q-93 -152 -197 -238t-186 -86z" />
<glyph unicode="z" horiz-adv-x="892" d="M897 909l55 -30q-15 -25 -108 -138q-69 -85 -261 -291l-241 -262h16q97 0 146 -22q86 -49 137 -49q52 0 95.5 29.5t99.5 125.5l51 -20q-69 -158 -125.5 -215t-126.5 -57q-92 0 -176 51q-85 53 -156 53q-18 0 -52 -28.5t-65 -80.5q-16 2 -47 13q-18 3 -28 26 q11 39 127 172q62 72 243.5 263t272.5 296q-11 2 -24.5 2t-32.5 -1t-31 -1q-26 0 -103 9.5t-127 9.5q-67 0 -102.5 -30t-69.5 -105l-55 16q28 95 87.5 174.5t111.5 79.5q60 0 217 -27q134 -28 161 -28q53 0 111 65z" />
<glyph unicode="{" horiz-adv-x="559" d="M571 1161l-65 -370q-24 -136 -64 -194t-125 -91q55 -26 78 -65.5t23 -102.5q0 -55 -17 -143l-59 -336q-10 -68 -10 -109q0 -47 10 -82q10 -24 21.5 -40.5t25.5 -25.5t19.5 -11.5t17.5 -6.5l-4 -28q-176 3 -215 73q-25 43 -25 119q0 49 15 141l63 359q10 58 10 96 q0 129 -102 156l2 10q143 39 180 248l70 387q27 166 98 237q69 71 240 74l-6 -29q-68 -19 -115 -84q-39 -48 -66 -182z" />
<glyph unicode="|" horiz-adv-x="419" d="M172 -477h-90l319 1812h91z" />
<glyph unicode="}" horiz-adv-x="559" d="M168 -150l63 371q24 136 65 194.5t126 92.5q-55 24 -77.5 63t-22.5 103q0 55 16 143l57 336q13 70 13 111q0 46 -13 79q-9 25 -20 41.5t-24.5 25t-20 11t-19.5 6.5l6 29q177 -3 215 -74q23 -43 23 -118q0 -64 -14 -142l-64 -356q-8 -49 -8 -98q0 -129 100 -156v-10 q-143 -39 -182 -246l-68 -389q-30 -167 -98 -238q-73 -70 -239 -73l6 28q69 21 114 84q42 58 66 182z" />
<glyph unicode="~" horiz-adv-x="919" d="M129 428q38 103 127.5 182.5t179.5 79.5q31 0 70 -21t70 -45.5t69.5 -45.5t69.5 -21q53 0 118.5 34t108.5 103l33 -12q-36 -77 -80.5 -130t-86 -76t-70 -31.5t-52.5 -8.5q-36 0 -74.5 21t-67 45.5t-67 45.5t-74.5 21q-57 0 -130.5 -41.5t-118.5 -105.5z" />
<glyph unicode="&#xa1;" horiz-adv-x="464" d="M489 807q-7 -46 -44.5 -78.5t-82.5 -32.5q-40 0 -66 26t-26 64q0 13 2 21q8 44 45.5 76t81.5 32q42 0 67.5 -25.5t25.5 -66.5q0 -12 -3 -16zM154 -473q-39 0 -66 28t-27 80q0 18 5 41q14 76 59 204.5t63 191.5q29 97 52 183t34 133.5t13 53.5q10 41 37 41q22 0 22 -20v-4 q-1 -18 -8 -79l-15 -152q-9 -89 -14 -156q-4 -56 -4 -138v-92q0 -84 -12 -166q-14 -75 -55.5 -112t-83.5 -37z" />
<glyph unicode="&#xa2;" d="M657 1196h70l-31 -154q56 -6 96 -27t59.5 -51t27.5 -59.5t8 -60.5q0 -46 -31 -69t-57 -23q-39 0 -56.5 18.5t-17.5 46.5q0 30 10 43t10 39q0 65 -61 78l-147 -760q116 8 215 127l36 -31q-18 -28 -35 -48t-50 -51t-80 -52.5t-103 -30.5l-31 -156h-69l29 150 q-64 0 -115.5 32.5t-81.5 83t-46 105.5t-16 105q0 159 62.5 293.5t162.5 212.5t214 87zM467 221l147 756q-109 -24 -182.5 -153t-73.5 -328q0 -237 109 -275z" />
<glyph unicode="&#xa3;" d="M336 174q57 0 99.5 -9.5t62.5 -19.5t45 -28q47 -39 108 -39q50 0 111.5 24.5t105.5 71.5l33 -27q-43 -78 -121.5 -125t-181.5 -47q-51 0 -92 17t-90 49q-82 53 -142 53q-45 0 -68.5 -17t-27.5 -36q-7 -37 -36.5 -56.5t-59.5 -19.5q-20 0 -33.5 15.5t-9.5 33.5 q11 62 117 111q19 13 41 33q75 66 115.5 164t66.5 223l10 53h-135l16 82h133l5 16q24 122 76.5 209t148.5 166q125 107 278 107q19 0 43 -5t48 -15t38 -28.5t9 -42.5q-7 -36 -34 -56.5t-63 -20.5q-31 0 -59 37q-17 16 -24.5 22.5t-25.5 14.5t-38 8q-69 0 -137.5 -86.5 t-92.5 -210.5l-22 -115h266l-14 -82h-268l-2 -10q-34 -170 -85.5 -265.5t-121.5 -142.5l-13 -8q9 2 21 2z" />
<glyph unicode="&#xa4;" d="M492 254q-123 0 -209 74l-107 -111l-70 82l125 88q-47 77 -47 162q0 30 6 63q25 129 121 226l-90 84l90 79l74 -102q116 72 233 72q121 0 209 -76l115 113l66 -84l-129 -90q43 -71 43 -154q0 -36 -7 -68q-21 -122 -112 -221l90 -90l-88 -78l-76 107q-113 -76 -237 -76z M315 614q-6 -30 -6 -59q0 -94 53 -154.5t146 -60.5q103 0 183.5 80t101.5 192q4 38 4 56q0 94 -53.5 155.5t-137.5 61.5q-104 0 -187 -79.5t-104 -191.5z" />
<glyph unicode="&#xa5;" d="M883 340l-17 -80h-280l-23 -113q-9 -47 13 -68.5t81 -21.5h56q15 0 12 -16l-6 -39l-6 -4q-176 4 -256 4l-267 -4l-2 4l7 39q3 16 20 16h53q61 0 91 22.5t38 67.5l23 113h-283l17 80h280l27 129h-283l17 82h270l-137 475q-14 49 -33 71.5t-57 22.5h-15q-15 5 -16 13v4 l6 37l4 4q40 -7 186 -7q125 0 179 7l2 -4l-6 -35q-6 -19 -19 -19h-27q-48 0 -55 -26q-1 -12 10 -64l123 -436l277 436q32 58 33 66q3 14 -7.5 20t-38.5 6h-30q-16 0 -10 15l8 37l2 4q56 -7 160 -7q79 0 147 7l4 -4l-6 -35q-1 -6 -2.5 -9t-6.5 -5.5t-14 -2.5h-14 q-81 0 -141 -96l-303 -475h256l-17 -82h-280l-27 -129h283z" />
<glyph unicode="&#xa6;" horiz-adv-x="419" d="M324 330l-131 -742h-101l131 742h101zM510 1380l-131 -741h-100l131 741h100z" />
<glyph unicode="&#xa7;" horiz-adv-x="954" d="M735 1337q104 0 177 -61.5t73 -155.5q0 -26 -2 -39q-6 -32 -33 -54.5t-55 -22.5q-29 0 -47 12.5t-22.5 26t-4.5 28.5q0 10 2 12q5 34 25 56q14 21 14 28q0 9 -5 24t-17 35.5t-40 35t-67 14.5q-85 0 -155 -65.5t-84 -147.5q-2 -12 -2 -33q0 -26 7.5 -45t29.5 -36t36 -25.5 t53 -28.5q50 -25 86.5 -46t84.5 -57.5t78 -74t51.5 -91t21.5 -112.5q0 -21 -4 -65q-35 -181 -174 -279q43 -46 43 -117q0 -35 -10 -80q-12 -67 -70 -140.5t-149 -126t-181 -52.5q-103 0 -176.5 62t-73.5 157q0 16 5 39q6 32 33 55t55 23q40 0 55.5 -22t15.5 -50v-10 q-4 -25 -22.5 -50.5t-18.5 -33.5q0 -10 6 -25.5t19 -35.5t42 -34t68 -14q76 0 146 58t88 155q2 13 2 33q0 45 -22 83.5t-60 57.5q-199 107 -281.5 194.5t-82.5 199.5q0 21 8 69q27 175 168 275q-27 39 -27 102q0 43 8 82q9 50 43.5 105t85 101.5t118.5 76.5t138 30zM731 201 q78 57 96 149q4 30 4 43q0 193 -314 363q-32 17 -114 57q-78 -57 -96 -149q-2 -13 -2 -39q0 -90 62.5 -176t150.5 -132q101 -50 213 -116z" />
<glyph unicode="&#xa8;" horiz-adv-x="768" d="M428 1266q34 0 56 -22t22 -54q0 -47 -35.5 -79t-75.5 -32q-34 0 -56 22t-22 56q0 46 35 77.5t76 31.5zM758 1268q33 0 55.5 -22.5t22.5 -55.5q0 -46 -35 -77.5t-76 -31.5q-34 0 -56 22t-22 54q0 47 35 79t76 32z" />
<glyph unicode="&#xa9;" horiz-adv-x="1296" d="M895 444q-35 -54 -96.5 -92.5t-139.5 -38.5q-142 0 -228.5 93.5t-86.5 222.5q0 119 86 212t223 93q81 0 133.5 -14.5t77.5 -14.5l25 -160l-55 -8q-8 43 -14.5 63.5t-24.5 45.5t-52 35t-88 10q-32 0 -63 -12t-62.5 -39.5t-51 -83t-19.5 -131.5q0 -110 53.5 -183t153.5 -73 q114 0 186 104zM649 47q-118 0 -225.5 46t-185 124t-123 185.5t-45.5 224.5t46 224t123.5 184.5t184.5 123t225 45.5t225 -45.5t184.5 -123t123 -184t45.5 -224.5t-45.5 -225.5t-123 -185t-184.5 -123.5t-225 -46zM649 1141q-141 0 -260 -69t-187.5 -187t-68.5 -258 q0 -139 68.5 -257.5t187.5 -187.5t260 -69q139 0 257.5 68.5t187.5 187t69 258.5t-68.5 258t-187 187t-258.5 69z" />
<glyph unicode="&#xaa;" horiz-adv-x="565" d="M598 1028q-127 -33 -179 -64.5t-65 -80.5q-2 -11 -2 -27q0 -57 70 -57q50 0 137 67zM610 733q-31 0 -47 21.5t-16 50.5q0 6 2 8q-61 -47 -98 -63.5t-82 -16.5q-53 0 -86 29.5t-33 79.5q0 9 4 35q28 121 238 176l118 30q11 45 11 82q0 52 -21 70t-53 18q-49 0 -80.5 -15 t-36.5 -40q-4 -16 -4 -20v-7q2 -2 2 -8q0 -10 -2 -16q-4 -15 -20 -29t-39 -14q-19 0 -30 10t-11 27q0 2 1 7t1 7q13 58 89.5 104t141.5 46q160 0 160 -150q0 -43 -10 -84l-35 -153q-15 -66 -15 -91q0 -26 15 -26q11 0 24 10l11 -33q-18 -17 -46.5 -31t-52.5 -14z" />
<glyph unicode="&#xab;" horiz-adv-x="1097" d="M743 879l-18 -105q-176 -207 -352 -334q129 -112 235 -334l-18 -104q-196 285 -379 399l14 78q252 160 518 400zM1114 879l-18 -105q-175 -205 -353 -334q128 -111 236 -334l-21 -104q-197 287 -376 399l14 78q252 160 518 400z" />
<glyph unicode="&#xac;" horiz-adv-x="1146" d="M1038 272l80 459h-940l17 90h1048l-96 -549h-109z" />
<glyph unicode="&#xad;" horiz-adv-x="716" d="M647 483h-465q-10 0 -17 8.5t-7 20.5q2 4 2 6q5 25 26 50.5t37 25.5h469q23 0 23 -25v-12q-3 -19 -26 -46.5t-42 -27.5z" />
<glyph unicode="&#xae;" horiz-adv-x="1296" d="M854 762q0 -30 -12 -57t-29 -44.5t-34.5 -30.5t-29.5 -18l-12 -6l99 -168q36 -63 82 -63v-27q-28 -8 -48 -8q-90 0 -127 78l-98 162q-11 8 -55 8v-195q0 -9 2 -12.5t12 -3.5h25q22 0 22 -12v-23q-86 4 -114 4l-113 -4v25q0 10 20 10h25q9 0 12.5 3t3.5 13v457q0 22 -8 22 l-33 -2q-20 3 -20 13v22q72 10 235 10q55 0 95.5 -15t61 -39t29.5 -48.5t9 -50.5zM752 762q0 54 -27 86.5t-78 32.5q-34 0 -57 -7v-243q25 0 42 1.5t42 8.5t40 20t26.5 39t11.5 62zM649 47q-118 0 -225.5 46t-185 124t-123 185.5t-45.5 224.5t46 224t123.5 184.5t184.5 123 t225 45.5t225 -45.5t184.5 -123t123 -184t45.5 -224.5t-45.5 -225.5t-123 -185t-184.5 -123.5t-225 -46zM649 1141q-141 0 -260 -69t-187.5 -187t-68.5 -258q0 -139 68.5 -257.5t187.5 -187.5t260 -69q139 0 257.5 68.5t187.5 187t69 258.5t-68.5 258t-187 187t-258.5 69z " />
<glyph unicode="&#xaf;" horiz-adv-x="813" d="M838 1083h-502q-21 0 -21 23q0 4 2 8q4 20 21 40t35 20h499q25 0 25 -23v-6q-3 -20 -22.5 -41t-36.5 -21z" />
<glyph unicode="&#xb0;" horiz-adv-x="546" d="M285 1214q13 84 83.5 143.5t155.5 59.5q75 0 122.5 -47.5t47.5 -120.5q0 -22 -2 -35q-15 -84 -85 -144t-154 -60q-77 0 -124.5 47.5t-47.5 120.5q0 12 4 36zM625 1212q0 5 1 14t1 13q0 50 -28.5 86.5t-84.5 36.5q-62 0 -106.5 -45.5t-55.5 -104.5q-4 -20 -4 -28 q0 -49 30.5 -83t84.5 -34q60 0 105 44t57 101z" />
<glyph unicode="&#xb1;" horiz-adv-x="1079" d="M969 137l-19 -100h-809l19 100h809zM715 698h352l-16 -100h-355l-61 -354h-103l64 354h-356l18 100h354l64 357h100z" />
<glyph unicode="&#xb2;" horiz-adv-x="628" d="M385 1202q-19 0 -33 12.5t-14 28.5q0 6 2 8q10 53 76 105.5t174 52.5q79 0 134.5 -32t55.5 -101q0 -23 -4 -37q-11 -66 -66 -121.5t-163 -122.5q-153 -95 -170 -184h166q68 0 143 137l47 -10q-42 -91 -74 -193h-421q8 47 45.5 95.5t81.5 85t108 80.5q89 60 128.5 106.5 t53.5 124.5q4 20 4 31q0 48 -28 70t-60 22q-60 0 -88 -18t-32 -42q-3 -9 -1.5 -24.5t-0.5 -24.5q-5 -22 -26 -35.5t-38 -13.5z" />
<glyph unicode="&#xb3;" horiz-adv-x="628" d="M635 1278q0 4 1 11t1 11q0 60 -70 60q-38 0 -78 -18.5t-49 -53.5q-15 -59 -63 -59q-18 0 -28 9t-11.5 15.5t-1.5 12.5q3 15 20 37t47.5 47t83.5 42t115 17q72 0 112 -26t40 -72q0 -15 -2 -23q-18 -82 -131 -139q52 -5 92.5 -41.5t40.5 -101.5q0 -13 -4 -37 q-20 -104 -120 -170t-224 -66q-59 0 -114.5 21.5t-55.5 50.5q0 18 20.5 31.5t38.5 13.5q28 0 47 -29q22 -37 94 -37q19 0 43 7t55 23.5t57 52.5t36 85q2 13 2 31q0 31 -14.5 52.5t-38 31t-43.5 13t-41 3.5q-11 0 -43 -4l6 49q71 10 119.5 49t60.5 101z" />
<glyph unicode="&#xb4;" horiz-adv-x="698" d="M612 1440q12 4 31 4q60 0 92 -37q8 -8 13 -10v-23l-275 -223q-49 -41 -65 -41q-11 0 -18 6.5t-7 16.5q0 23 20 49z" />
<glyph unicode="&#xb5;" horiz-adv-x="993" d="M94 -479q-24 0 -52 29.5t-28 74.5q0 19 2 29q12 49 53.5 155.5t57.5 174.5q5 23 18.5 123t28.5 167l88 385q6 26 14.5 83t13.5 101l5 44l172 18l-41 -203l-92 -401q-15 -61 -15 -113q0 -120 103 -120q78 0 158.5 40t130.5 95l157 684l158 18l-149 -651q-27 -115 -27 -139 q0 -43 39 -43q31 0 90 90l43 -23q-50 -84 -100 -124t-125 -40q-49 0 -79 32.5t-30 82.5q0 9 4 33q-168 -148 -332 -148q-33 0 -62 15.5t-42 36.5q-9 0 -18.5 -6t-10.5 -13q-14 -60 -14 -153q0 -22 1 -63t1 -60q0 -52 -6 -88q-15 -61 -46 -92t-69 -31z" />
<glyph unicode="&#xb6;" horiz-adv-x="1232" d="M758 -424q41 0 58.5 28t31.5 99l254 1436q6 42 6 67q0 18 -3.5 29.5t-10.5 17t-13.5 7t-17.5 2.5q-20 0 -34.5 -8t-23.5 -18.5t-15.5 -30.5t-9.5 -34t-7 -38l-252 -1426q-6 -30 -6 -63q0 -68 43 -68zM969 -295q-8 -41 -8 -72q0 -33 14 -43t51 -12h61q13 0 9 -14l-9 -43 h-671l8 43q3 14 14 14h60q50 2 69.5 26t32.5 103l133 758q-55 -25 -162 -25q-48 0 -95.5 9.5t-97.5 34.5t-87.5 63t-61.5 100t-24 141q0 59 8 111q35 194 163.5 309t328.5 115q89 0 202.5 -5t128.5 -5l144 6l227 4l-8 -43q-3 -14 -15 -14h-61q-52 0 -70.5 -26t-31.5 -101z " />
<glyph unicode="&#xb7;" horiz-adv-x="518" d="M338 430q-44 0 -70 26.5t-26 63.5q0 3 1 10.5t1 10.5q9 44 48 77t85 33q37 0 64.5 -27.5t27.5 -66.5q0 -2 -1 -7.5t-1 -8.5q-8 -45 -45.5 -78t-83.5 -33z" />
<glyph unicode="&#xb8;" horiz-adv-x="1107" d="M563 -164q-41 0 -94 -12l-10 12l121 178h69l-76 -118q25 6 54 6q52 0 86.5 -25t34.5 -72q0 -76 -75.5 -126t-180.5 -50q-71 0 -146 35l29 37q39 -13 58.5 -16.5t55.5 -3.5q57 0 101.5 27.5t44.5 74.5q0 24 -20.5 38.5t-51.5 14.5z" />
<glyph unicode="&#xb9;" horiz-adv-x="628" d="M508 1272q-45 0 -123 -33l-8 55q135 46 260 115h33l-105 -535q-7 -33 4 -54t33 -21h57q13 0 11 -11l-8 -43q-107 3 -177 3l-200 -3l8 43q4 11 16 11h74q25 0 48 21t30 54l59 312q10 49 7.5 67.5t-19.5 18.5z" />
<glyph unicode="&#xba;" horiz-adv-x="714" d="M252 879q25 131 114.5 205.5t221.5 74.5q72 0 123 -22.5t73.5 -60t31 -86t-4.5 -99.5q-24 -113 -112.5 -191.5t-225.5 -78.5q-114 0 -179 74t-42 184zM565 1108q-73 0 -124.5 -60.5t-67.5 -148.5q-18 -85 15 -153t118 -68q24 0 49 8t52 26.5t49 56t32 89.5 q23 121 -10.5 185.5t-112.5 64.5z" />
<glyph unicode="&#xbb;" horiz-adv-x="1054" d="M672 879q169 -244 356 -400l-18 -78q-227 -112 -541 -399l23 104q201 223 372 334q-120 123 -217 334zM301 879q178 -250 356 -400l-18 -78q-227 -112 -541 -399l25 104q197 222 371 334q-122 125 -218 334z" />
<glyph unicode="&#xbc;" horiz-adv-x="1351" d="M1329 1231l82 -17l-1198 -1341l-84 16zM1239 322l-43 -216h113l-21 -69h-104l-21 -103q-6 -29 1 -40t34 -11h33q8 0 8 -10l-6 -41q-88 2 -143 2l-125 -2l8 43q0 8 10 8h31q28 0 38.5 8.5t16.5 40.5l21 105h-295l-4 22l403 449l55 -21l-331 -381h186l29 156q5 20 22 37 q45 43 62 43q7 0 11.5 -1t8 -6t2.5 -13zM481 1171q-37 0 -125 -32l-8 55q85 28 138 51t122 64h33l-102 -537q-7 -33 4 -54.5t32 -21.5h58q10 0 10 -10l-8 -41q-109 2 -176 2l-201 -2l8 43q4 8 17 8h73q26 0 49 21.5t27 54.5l62 311q11 51 9 69.5t-22 18.5z" />
<glyph unicode="&#xbd;" horiz-adv-x="1351" d="M1329 1231l82 -17l-1198 -1341l-84 16zM940 295q-19 0 -32.5 14.5t-10.5 34.5q4 22 21 47.5t46.5 51t78 42.5t106.5 17q55 0 99 -14t71.5 -53.5t15.5 -100.5q-13 -67 -67.5 -122.5t-161.5 -123.5q-155 -97 -172 -184h166q42 0 76.5 39t68.5 100l47 -12q-51 -113 -75 -193 h-422q12 67 74 129.5t161 130.5q91 61 130.5 107.5t53.5 124.5q7 34 0 59.5t-22.5 38.5t-31.5 19t-32 6q-107 0 -120 -60q-2 -7 -0.5 -24.5t0.5 -24.5q-6 -23 -27.5 -36t-40.5 -13zM485 1171q-35 0 -123 -32l-8 55q84 29 136.5 51.5t123.5 63.5h33l-104 -537q-6 -33 5 -54.5 t32 -21.5h57q13 0 10 -10l-8 -41q-107 2 -174 2l-203 -2l10 43q0 8 17 8h71q26 0 49 21.5t29 54.5l62 311q5 28 6.5 43t0.5 26t-6.5 15t-15.5 4z" />
<glyph unicode="&#xbe;" horiz-adv-x="1351" d="M1329 1231l82 -17l-1198 -1341l-84 16zM610 1174q9 43 -11 62t-56 19q-37 0 -77.5 -18.5t-47.5 -52.5q-5 -17 -10.5 -27.5t-20 -21.5t-35.5 -11q-41 0 -41 37q4 16 21 38t47.5 47t83 42t115.5 17q80 0 119.5 -32t29.5 -87q-13 -83 -131 -142q60 -5 102.5 -52t26.5 -128 q-20 -103 -119.5 -168t-224.5 -65q-63 0 -118.5 22t-49.5 52q1 14 20.5 27t36.5 13q13 0 23 -5t13 -8.5t11 -14.5q12 -19 31.5 -28t65.5 -9q18 0 42.5 7t54.5 23.5t55.5 53t35.5 86.5q8 40 -4 68t-37.5 40t-47.5 16.5t-46 4.5q-27 0 -41 -4l4 49q71 9 119.5 48.5t60.5 101.5 zM1247 328l-41 -217h113l-21 -70h-106l-21 -102q-5 -29 2 -40.5t35 -11.5h31q12 0 8 -8l-6 -41q-88 2 -141 2l-127 -2l8 41q0 8 10 8h31q28 0 38.5 9.5t16.5 42.5l21 102h-295l-2 25l401 446l58 -20l-334 -381h186l31 157q1 10 8 20.5t12 14.5q43 43 62 43q12 0 18.5 -3.5 t3.5 -14.5z" />
<glyph unicode="&#xbf;" horiz-adv-x="829" d="M715 813q-7 -44 -45.5 -76t-83.5 -32q-40 0 -66 25.5t-26 64.5q0 3 1 9t1 9q9 45 46.5 77t82.5 32q39 0 65.5 -25.5t26.5 -62.5q0 -5 -1 -11.5t-1 -9.5zM584 -279q7 34 -4 54q-10 17 -5 49q6 33 34.5 52.5t60.5 19.5q27 0 48 -15t21 -51q0 -3 -1 -10.5t-1 -12.5 q-19 -103 -135 -184q-110 -80 -268 -80q-137 0 -214 66.5t-77 179.5q0 12 3 35.5t3 28.5q8 46 30.5 89.5t46 73t64.5 64.5t64 52l70 48q97 64 125 103q53 75 65 149l16 90q3 21 29 21q25 0 19 -21l-17 -94q-7 -44 -15 -74t-27.5 -76.5t-57 -91.5t-92.5 -88 q-75 -59 -115 -113.5t-51 -123.5q-4 -38 -4 -54q0 -85 45.5 -143.5t120.5 -58.5q85 0 148 34.5t71 81.5z" />
<glyph unicode="&#xc0;" horiz-adv-x="1439" d="M330 147q-19 -24 -19 -47q0 -43 88 -43h60q12 0 12 -16l-6 -39l-4 -4q-203 4 -252 4l-184 -4l-5 4l9 39q3 16 18 16h25q60 0 97.5 26.5t70.5 82.5l675 1120q43 70 68 70q26 0 38 -14.5t21 -55.5l224 -1110q12 -62 41.5 -90.5t89.5 -28.5h22q6 0 11.5 -5t5.5 -11l-6 -39 l-9 -4q-153 4 -233 4l-275 -4l-4 4l9 39q3 16 18 16h57q49 0 78 17t29 51q0 14 -2 22l-70 353h-430q-60 0 -82 -35zM649 580h365l-105 546l-303 -510q-6 -12 -6 -18q0 -18 49 -18zM1225 1475q0 -13 -9 -26t-30 -13q-25 0 -82 24l-289 129l178 92l209 -172q23 -18 23 -34z " />
<glyph unicode="&#xc1;" horiz-adv-x="1439" d="M330 147q-19 -24 -19 -47q0 -43 88 -43h60q12 0 12 -16l-6 -39l-4 -4q-203 4 -252 4l-184 -4l-5 4l9 39q3 16 18 16h25q60 0 97.5 26.5t70.5 82.5l675 1120q43 70 68 70q26 0 38 -14.5t21 -55.5l224 -1110q12 -62 41.5 -90.5t89.5 -28.5h22q6 0 11.5 -5t5.5 -11l-6 -39 l-9 -4q-153 4 -233 4l-275 -4l-4 4l9 39q3 16 18 16h57q49 0 78 17t29 51q0 14 -2 22l-70 353h-430q-60 0 -82 -35zM649 580h365l-105 546l-303 -510q-6 -12 -6 -18q0 -18 49 -18zM811 1436q-25 0 -25 22q0 23 43 51l289 172l133 -92l-346 -129q-74 -24 -94 -24z" />
<glyph unicode="&#xc2;" horiz-adv-x="1439" d="M330 147q-19 -24 -19 -47q0 -43 88 -43h60q12 0 12 -16l-6 -39l-4 -4q-203 4 -252 4l-184 -4l-5 4l9 39q3 16 18 16h25q60 0 97.5 26.5t70.5 82.5l675 1120q43 70 68 70q26 0 38 -14.5t21 -55.5l224 -1110q12 -62 41.5 -90.5t89.5 -28.5h22q6 0 11.5 -5t5.5 -11l-6 -39 l-9 -4q-153 4 -233 4l-275 -4l-4 4l9 39q3 16 18 16h57q49 0 78 17t29 51q0 14 -2 22l-70 353h-430q-60 0 -82 -35zM649 580h365l-105 546l-303 -510q-6 -12 -6 -18q0 -18 49 -18zM1098 1671q61 -105 162 -192l-43 -43q-120 62 -189 127q-120 -76 -248 -127l-18 43 q116 75 248 192h88z" />
<glyph unicode="&#xc3;" horiz-adv-x="1439" d="M330 147q-19 -24 -19 -47q0 -43 88 -43h60q12 0 12 -16l-6 -39l-4 -4q-203 4 -252 4l-184 -4l-5 4l9 39q3 16 18 16h25q60 0 97.5 26.5t70.5 82.5l675 1120q43 70 68 70q26 0 38 -14.5t21 -55.5l224 -1110q12 -62 41.5 -90.5t89.5 -28.5h22q6 0 11.5 -5t5.5 -11l-6 -39 l-9 -4q-153 4 -233 4l-275 -4l-4 4l9 39q3 16 18 16h57q49 0 78 17t29 51q0 14 -2 22l-70 353h-430q-60 0 -82 -35zM649 580h365l-105 546l-303 -510q-6 -12 -6 -18q0 -18 49 -18zM1280 1634l45 -12q-79 -184 -221 -184q-51 0 -115 49q-61 49 -104 49q-75 0 -121 -98l-47 10 q84 182 205 182q69 0 122 -49q62 -53 109 -53q70 0 127 106z" />
<glyph unicode="&#xc4;" horiz-adv-x="1439" d="M330 147q-19 -24 -19 -47q0 -43 88 -43h60q12 0 12 -16l-6 -39l-4 -4q-203 4 -252 4l-184 -4l-5 4l9 39q3 16 18 16h25q60 0 97.5 26.5t70.5 82.5l675 1120q43 70 68 70q26 0 38 -14.5t21 -55.5l224 -1110q12 -62 41.5 -90.5t89.5 -28.5h22q6 0 11.5 -5t5.5 -11l-6 -39 l-9 -4q-153 4 -233 4l-275 -4l-4 4l9 39q3 16 18 16h57q49 0 78 17t29 51q0 14 -2 22l-70 353h-430q-60 0 -82 -35zM649 580h365l-105 546l-303 -510q-6 -12 -6 -18q0 -18 49 -18zM1133 1386q0 42 34 76.5t78 34.5q33 0 54.5 -21.5t21.5 -54.5q0 -42 -34.5 -76t-78.5 -34 q-33 0 -54 21t-21 54zM678 1384q0 44 34 77.5t79 33.5q33 0 54 -20.5t21 -53.5q0 -42 -34 -76t-78 -34q-33 0 -54.5 21t-21.5 52z" />
<glyph unicode="&#xc5;" horiz-adv-x="1439" d="M842 1430q0 78 65 143t148 65q66 0 102.5 -39.5t36.5 -91.5q0 -62 -45.5 -119.5t-112.5 -78.5q1 -5 3 -12.5t3 -10.5l224 -1110q12 -62 41.5 -90.5t89.5 -28.5h22q6 0 11.5 -5t5.5 -11l-6 -39l-9 -4q-153 4 -233 4l-275 -4l-4 4l9 39q3 16 18 16h57q49 0 78 17t29 51 q0 14 -2 22l-70 353h-430q-60 0 -82 -35l-186 -318q-19 -24 -19 -47q0 -43 88 -43h60q12 0 12 -16l-6 -39l-4 -4q-203 4 -252 4l-184 -4l-5 4l9 39q3 16 18 16h25q60 0 97.5 26.5t70.5 82.5l675 1120l13 21q-42 13 -64 46.5t-22 76.5zM1128 1495q0 36 -23.5 60t-64.5 24 q-53 0 -95 -41.5t-42 -93.5q0 -34 23.5 -59t64.5 -25q54 0 95.5 41t41.5 94zM649 580h365l-105 546l-303 -510q-6 -12 -6 -18q0 -18 49 -18z" />
<glyph unicode="&#xc6;" horiz-adv-x="1771" d="M676 625h323l109 553q4 24 4 47zM967 6l-267 -8l-4 4l6 37q9 18 21 18h53q61 0 91.5 22.5t39.5 67.5l76 398h-365l-294 -406q-34 -44 -37 -59q-3 -14 10 -18.5t49 -4.5h62q10 0 10 -12l-10 -43l-2 -4q-134 4 -213 4l-185 -4l-4 4l8 39q3 16 25 16h45q45 0 73.5 17 t65.5 69l750 1039q10 20 12 28q4 24 -13.5 40t-41.5 16h-64q-16 0 -12 14l6 41l4 2h361l159 2l455 2q-14 -152 -18 -317l-62 -11q-6 52 -11 81.5t-17.5 65.5t-30.5 54.5t-50 31.5t-77 13h-207q-38 0 -59 -15t-27 -50l-86 -437h211q50 0 75 21.5t46 69.5l24 61q8 16 19 16h45 q6 0 6 -8q-43 -136 -53 -194q-23 -107 -23 -197l-6 -6h-47q-14 0 -14 14v64q0 46 -18.5 68t-67.5 22h-209l-103 -522q-7 -39 9 -53.5t53 -14.5h268q107 0 178 70t131 198l60 -10q-83 -205 -119 -338h-533z" />
<glyph unicode="&#xc7;" horiz-adv-x="1339" d="M709 -190q-37 0 -97 -13l-10 13l115 165q-106 4 -193 34.5t-146.5 80.5t-100.5 117.5t-59.5 144t-18.5 160.5q0 66 12 133q26 148 104 280t184 224t234 145.5t254 53.5q85 0 156 -14.5t109.5 -32t83 -32t83.5 -14.5l-12 -337l-66 -9q-4 65 -17 116t-41 99t-70 79.5 t-109 50t-154 18.5q-51 0 -113 -20.5t-131.5 -67.5t-130 -113t-110 -167t-70.5 -220q-14 -71 -14 -152q0 -76 13.5 -144.5t43.5 -129t73 -104.5t106.5 -69.5t140.5 -25.5q142 0 262.5 53.5t251.5 174.5l41 -31q-118 -127 -252.5 -198t-272.5 -81l-69 -108q24 6 53 6 q52 0 85.5 -24.5t33.5 -71.5q0 -77 -75 -126.5t-181 -49.5q-71 0 -143 35l26 36q61 -20 115 -20q58 0 101.5 28t43.5 74q0 25 -19 39.5t-50 14.5z" />
<glyph unicode="&#xc8;" horiz-adv-x="1159" d="M942 1241h-276q-38 0 -58.5 -14.5t-27.5 -50.5l-76 -437h278q51 0 76 21.5t43 68.5l27 62q2 6 7 11t9 5h45q6 0 6 -8q-47 -170 -51 -194q-16 -112 -16 -197l-8 -6h-48q-14 0 -14 14v64q-2 47 -20 68.5t-68 21.5h-278l-93 -523q-7 -39 9 -53t53 -14h340q56 0 102.5 20 t82.5 60t63 83t55 105l61 -10q-80 -200 -114 -338h-602l-158 2l-266 -4l8 45q5 14 18 14h62q59 0 85.5 22t34.5 68l183 1027q8 48 -12.5 70t-77.5 22h-62q-17 0 -12 14l6 43l266 -2l158 2h526q-14 -153 -14 -317l-59 -11l-10 59q-3 19 -11 51t-16 47t-22.5 36t-32 30 t-43.5 16t-58 7zM977 1468q0 -13 -9.5 -25.5t-29.5 -12.5q-25 0 -82 24l-289 129l178 92l209 -172q23 -18 23 -35z" />
<glyph unicode="&#xc9;" horiz-adv-x="1159" d="M942 1241h-276q-38 0 -58.5 -14.5t-27.5 -50.5l-76 -437h278q51 0 76 21.5t43 68.5l27 62q2 6 7 11t9 5h45q6 0 6 -8q-47 -170 -51 -194q-16 -112 -16 -197l-8 -6h-48q-14 0 -14 14v64q-2 47 -20 68.5t-68 21.5h-278l-93 -523q-7 -39 9 -53t53 -14h340q56 0 102.5 20 t82.5 60t63 83t55 105l61 -10q-80 -200 -114 -338h-602l-158 2l-266 -4l8 45q5 14 18 14h62q59 0 85.5 22t34.5 68l183 1027q8 48 -12.5 70t-77.5 22h-62q-17 0 -12 14l6 43l266 -2l158 2h526q-14 -153 -14 -317l-59 -11l-10 59q-3 19 -11 51t-16 47t-22.5 36t-32 30 t-43.5 16t-58 7zM563 1425q-24 0 -24 23q0 24 43 51l288 172l134 -92l-347 -129q-77 -25 -94 -25z" />
<glyph unicode="&#xca;" horiz-adv-x="1159" d="M942 1241h-276q-38 0 -58.5 -14.5t-27.5 -50.5l-76 -437h278q51 0 76 21.5t43 68.5l27 62q2 6 7 11t9 5h45q6 0 6 -8q-47 -170 -51 -194q-16 -112 -16 -197l-8 -6h-48q-14 0 -14 14v64q-2 47 -20 68.5t-68 21.5h-278l-93 -523q-7 -39 9 -53t53 -14h340q56 0 102.5 20 t82.5 60t63 83t55 105l61 -10q-80 -200 -114 -338h-602l-158 2l-266 -4l8 45q5 14 18 14h62q59 0 85.5 22t34.5 68l183 1027q8 48 -12.5 70t-77.5 22h-62q-17 0 -12 14l6 43l266 -2l158 2h526q-14 -153 -14 -317l-59 -11l-10 59q-3 19 -11 51t-16 47t-22.5 36t-32 30 t-43.5 16t-58 7zM909 1661q59 -101 162 -193l-43 -43q-114 59 -188 127q-120 -75 -248 -127l-19 43q120 78 248 193h88z" />
<glyph unicode="&#xcb;" horiz-adv-x="1159" d="M942 1241h-276q-38 0 -58.5 -14.5t-27.5 -50.5l-76 -437h278q51 0 76 21.5t43 68.5l27 62q2 6 7 11t9 5h45q6 0 6 -8q-47 -170 -51 -194q-16 -112 -16 -197l-8 -6h-48q-14 0 -14 14v64q-2 47 -20 68.5t-68 21.5h-278l-93 -523q-7 -39 9 -53t53 -14h340q56 0 102.5 20 t82.5 60t63 83t55 105l61 -10q-80 -200 -114 -338h-602l-158 2l-266 -4l8 45q5 14 18 14h62q59 0 85.5 22t34.5 68l183 1027q8 48 -12.5 70t-77.5 22h-62q-17 0 -12 14l6 43l266 -2l158 2h526q-14 -153 -14 -317l-59 -11l-10 59q-3 19 -11 51t-16 47t-22.5 36t-32 30 t-43.5 16t-58 7zM561 1520q7 38 40.5 65t72.5 27q34 0 55 -21t21 -53q0 -3 -1 -9t-1 -9q-8 -39 -40.5 -66t-70.5 -27q-34 0 -56 22t-22 54q0 2 1 7.5t1 9.5zM950 1522q8 37 40.5 64.5t70.5 27.5q33 0 54.5 -21.5t21.5 -52.5q0 -14 -2 -18q-7 -39 -39 -67t-70 -28 q-34 0 -56 22t-22 56q0 11 2 17z" />
<glyph unicode="&#xcc;" horiz-adv-x="663" d="M653 1176l-180 -1031q-8 -47 14 -67.5t82 -20.5h54q17 0 14 -16l-6 -39l-4 -4q-178 4 -258 4l-265 -4l-4 4l6 39q5 16 21 16h53q61 0 90 21.5t37 66.5l182 1031q8 46 -14.5 68t-81.5 22h-53q-17 0 -14 16l6 39l4 2q178 -2 258 -2l264 2l4 -2l-8 -39q-3 -16 -18 -16h-54 q-61 0 -90.5 -22.5t-38.5 -67.5zM842 1464q0 -13 -9.5 -26t-29.5 -13q-23 0 -82 25l-289 129l178 92l209 -172q23 -18 23 -35z" />
<glyph unicode="&#xcd;" horiz-adv-x="663" d="M653 1176l-180 -1031q-8 -47 14 -67.5t82 -20.5h54q17 0 14 -16l-6 -39l-4 -4q-178 4 -258 4l-265 -4l-4 4l6 39q5 16 21 16h53q61 0 90 21.5t37 66.5l182 1031q8 46 -14.5 68t-81.5 22h-53q-17 0 -14 16l6 39l4 2q178 -2 258 -2l264 2l4 -2l-8 -39q-3 -16 -18 -16h-54 q-61 0 -90.5 -22.5t-38.5 -67.5zM428 1425q-25 0 -25 23t43 51l289 172l133 -92l-346 -129q-77 -25 -94 -25z" />
<glyph unicode="&#xce;" horiz-adv-x="663" d="M653 1176l-180 -1031q-8 -47 14 -67.5t82 -20.5h54q17 0 14 -16l-6 -39l-4 -4q-178 4 -258 4l-265 -4l-4 4l6 39q5 16 21 16h53q61 0 90 21.5t37 66.5l182 1031q8 46 -14.5 68t-81.5 22h-53q-17 0 -14 16l6 39l4 2q178 -2 258 -2l264 2l4 -2l-8 -39q-3 -16 -18 -16h-54 q-61 0 -90.5 -22.5t-38.5 -67.5zM715 1661q61 -104 162 -193l-43 -43q-117 60 -189 127q-120 -75 -248 -127l-18 43q124 82 248 193h88z" />
<glyph unicode="&#xcf;" horiz-adv-x="663" d="M653 1176l-180 -1031q-8 -47 14 -67.5t82 -20.5h54q17 0 14 -16l-6 -39l-4 -4q-178 4 -258 4l-265 -4l-4 4l6 39q5 16 21 16h53q61 0 90 21.5t37 66.5l182 1031q8 46 -14.5 68t-81.5 22h-53q-17 0 -14 16l6 39l4 2q178 -2 258 -2l264 2l4 -2l-8 -39q-3 -16 -18 -16h-54 q-61 0 -90.5 -22.5t-38.5 -67.5zM350 1520q7 38 40.5 65t72.5 27q34 0 55 -21t21 -53q0 -3 -1 -9t-1 -9q-8 -39 -40.5 -66t-70.5 -27q-34 0 -56 22t-22 54q0 2 1 7.5t1 9.5zM739 1522q8 37 40.5 64.5t70.5 27.5q33 0 54.5 -21.5t21.5 -52.5q0 -14 -2 -18q-7 -39 -39 -67 t-70 -28q-34 0 -56 22t-22 56q0 11 2 17z" />
<glyph unicode="&#xd0;" horiz-adv-x="1480" d="M473 147q-2 -8 -2 -22q0 -35 41.5 -46t171.5 -11q150 0 266.5 41t187.5 106t117 156t63 181t17 191q0 82 -16 155t-52.5 139.5t-92 114t-140 75.5t-190.5 28q-89 0 -134.5 -15t-54.5 -64l-90 -508h193l-17 -80h-190zM106 39q5 18 21 18h59q58 0 86 21.5t37 71.5l78 438 h-201l17 80h198l88 506q5 16 5 36q0 32 -20.5 44t-72.5 12h-59q-14 0 -14 14q4 29 8 43l260 -2q61 0 176 1t160 1q173 0 309.5 -75.5t211.5 -206.5t75 -291q0 -150 -54 -285.5t-153.5 -239.5t-251.5 -165.5t-336 -61.5q-121 0 -235.5 2t-135.5 2l-262 -4z" />
<glyph unicode="&#xd1;" horiz-adv-x="1501" d="M1513 1141l-192 -1098q-12 -59 -55 -59q-50 3 -72 45l-557 903q-40 67 -57 67q-12 0 -19.5 -22t-17.5 -78l-127 -719q-4 -20 -4 -30q0 -95 94 -95h53q7 0 11 -4.5t3 -11.5l-8 -39l-4 -2q-145 4 -225 4l-221 -4l-15 2l6 39q2 7 12 11.5t19 4.5h53q57 0 90.5 37.5 t43.5 87.5l168 946q-4 47 -37.5 93.5t-79.5 46.5h-10q-9 0 -16.5 4.5t-6.5 11.5l6 33l8 10h267l557 -905q16 -27 35 -65t28.5 -53t18.5 -15q11 0 16 30l6 48l137 776q4 20 4 28q0 42 -21.5 69.5t-70.5 27.5h-53q-9 0 -17.5 4.5t-7.5 11.5l7 39l16 4q145 -6 219 -6l227 6 l5 -4l-9 -39q-3 -16 -18 -16h-55q-56 0 -90.5 -37t-43.5 -88zM1339 1624l45 -12q-80 -185 -221 -185q-49 0 -114 50q-63 49 -105 49q-73 0 -121 -99l-47 11q86 182 205 182q68 0 123 -49q62 -53 108 -53q70 0 127 106z" />
<glyph unicode="&#xd2;" horiz-adv-x="1325" d="M709 45q114 0 215.5 75t169 193.5t106.5 263.5t39 287q0 203 -90.5 308.5t-253.5 105.5q-90 0 -174.5 -48.5t-148.5 -129.5t-112.5 -182.5t-74 -213t-25.5 -215.5q0 -205 100 -324.5t249 -119.5zM1415 848q0 -97 -23 -198.5t-66.5 -199t-110 -183.5t-148 -151t-188 -103 t-222.5 -38q-213 0 -345 133.5t-132 360.5q0 120 36 245t105 238t159.5 202t209 141.5t244.5 52.5q219 0 350 -135.5t131 -364.5zM1196 1464q0 -13 -9.5 -26t-29.5 -13q-23 0 -82 25l-289 129l179 92l209 -172q22 -19 22 -35z" />
<glyph unicode="&#xd3;" horiz-adv-x="1325" d="M709 45q114 0 215.5 75t169 193.5t106.5 263.5t39 287q0 203 -90.5 308.5t-253.5 105.5q-90 0 -174.5 -48.5t-148.5 -129.5t-112.5 -182.5t-74 -213t-25.5 -215.5q0 -205 100 -324.5t249 -119.5zM1415 848q0 -97 -23 -198.5t-66.5 -199t-110 -183.5t-148 -151t-188 -103 t-222.5 -38q-213 0 -345 133.5t-132 360.5q0 120 36 245t105 238t159.5 202t209 141.5t244.5 52.5q219 0 350 -135.5t131 -364.5zM780 1425q-24 0 -24 23q0 24 43 51l288 172l134 -92l-347 -129q-77 -25 -94 -25z" />
<glyph unicode="&#xd4;" horiz-adv-x="1325" d="M709 45q114 0 215.5 75t169 193.5t106.5 263.5t39 287q0 203 -90.5 308.5t-253.5 105.5q-90 0 -174.5 -48.5t-148.5 -129.5t-112.5 -182.5t-74 -213t-25.5 -215.5q0 -205 100 -324.5t249 -119.5zM1415 848q0 -97 -23 -198.5t-66.5 -199t-110 -183.5t-148 -151t-188 -103 t-222.5 -38q-213 0 -345 133.5t-132 360.5q0 120 36 245t105 238t159.5 202t209 141.5t244.5 52.5q219 0 350 -135.5t131 -364.5zM1067 1661q61 -104 162 -193l-43 -43q-114 58 -189 127q-121 -76 -247 -127l-19 43q124 82 248 193h88z" />
<glyph unicode="&#xd5;" horiz-adv-x="1325" d="M709 45q114 0 215.5 75t169 193.5t106.5 263.5t39 287q0 203 -90.5 308.5t-253.5 105.5q-90 0 -174.5 -48.5t-148.5 -129.5t-112.5 -182.5t-74 -213t-25.5 -215.5q0 -205 100 -324.5t249 -119.5zM1415 848q0 -97 -23 -198.5t-66.5 -199t-110 -183.5t-148 -151t-188 -103 t-222.5 -38q-213 0 -345 133.5t-132 360.5q0 120 36 245t105 238t159.5 202t209 141.5t244.5 52.5q219 0 350 -135.5t131 -364.5zM1251 1624l45 -12q-80 -185 -221 -185q-49 0 -114 50q-63 49 -105 49q-73 0 -121 -99l-47 11q84 182 205 182q68 0 123 -49q62 -53 108 -53 q70 0 127 106z" />
<glyph unicode="&#xd6;" horiz-adv-x="1325" d="M709 45q114 0 215.5 75t169 193.5t106.5 263.5t39 287q0 203 -90.5 308.5t-253.5 105.5q-90 0 -174.5 -48.5t-148.5 -129.5t-112.5 -182.5t-74 -213t-25.5 -215.5q0 -205 100 -324.5t249 -119.5zM1415 848q0 -97 -23 -198.5t-66.5 -199t-110 -183.5t-148 -151t-188 -103 t-222.5 -38q-213 0 -345 133.5t-132 360.5q0 120 36 245t105 238t159.5 202t209 141.5t244.5 52.5q219 0 350 -135.5t131 -364.5zM485 1391q0 42 34.5 76t78.5 34q33 0 55.5 -21.5t22.5 -52.5q0 -43 -34 -76.5t-79 -33.5q-33 0 -55.5 21.5t-22.5 52.5zM1272 1384 q0 44 34 77.5t78 33.5q34 0 56 -21t22 -53q0 -42 -34 -76t-78 -34q-34 0 -56 21t-22 52z" />
<glyph unicode="&#xd7;" horiz-adv-x="1079" d="M694 471l205 -250l-84 -71l-205 249l-295 -249l-59 71l295 250l-207 252l84 72l207 -252l297 252l57 -72z" />
<glyph unicode="&#xd8;" horiz-adv-x="1325" d="M1489 1372l51 -51l-190 -199q65 -113 65 -274q0 -97 -23 -198.5t-66.5 -199t-110 -183.5t-148 -151t-188 -103t-222.5 -38q-180 0 -307 99l-153 -162l-54 51l154 162q-117 133 -117 344q0 120 36 245t105 238t159.5 202t209 141.5t244.5 52.5q243 0 375 -164zM709 45 q114 0 215.5 75t169 193.5t106.5 263.5t39 287q0 70 -12 129l-776 -815q47 -64 114 -98.5t144 -34.5zM412 244l792 831q-77 203 -309 203q-90 0 -174.5 -48.5t-148.5 -129.5t-112.5 -182.5t-74 -213t-25.5 -215.5q0 -143 52 -245z" />
<glyph unicode="&#xd9;" horiz-adv-x="1378" d="M469 354q0 -78 26.5 -138.5t69.5 -95t92 -52t101 -17.5q72 0 132 16.5t103.5 43t79 67.5t58.5 82t42 96t29.5 99.5t20.5 101.5l108 619q2 10 2 24q0 34 -22.5 50t-73.5 16h-55q-7 0 -11.5 4.5t-3.5 11.5l9 39l4 4q145 -6 225 -6l225 6l4 -4l-8 -39q-3 -16 -18 -16h-54 q-61 0 -90.5 -22.5t-38.5 -67.5l-102 -582q-20 -117 -49 -207t-77.5 -171.5t-115 -134.5t-163.5 -83.5t-220 -30.5q-53 0 -103.5 9.5t-105.5 35.5t-95 66t-66.5 108t-26.5 156q0 62 12 129l123 705q2 10 2 24q0 34 -22.5 50t-73.5 16h-55q-15 0 -15 16l9 39l4 4 q178 -6 258 -6l264 6l4 -4l-8 -39q-3 -16 -19 -16h-55q-61 0 -90 -22.5t-37 -67.5l-113 -635q-20 -124 -20 -187zM1202 1464q0 -13 -9.5 -26t-29.5 -13q-23 0 -82 25l-288 129l178 92l209 -172q22 -19 22 -35z" />
<glyph unicode="&#xda;" horiz-adv-x="1378" d="M469 354q0 -78 26.5 -138.5t69.5 -95t92 -52t101 -17.5q72 0 132 16.5t103.5 43t79 67.5t58.5 82t42 96t29.5 99.5t20.5 101.5l108 619q2 10 2 24q0 34 -22.5 50t-73.5 16h-55q-7 0 -11.5 4.5t-3.5 11.5l9 39l4 4q145 -6 225 -6l225 6l4 -4l-8 -39q-3 -16 -18 -16h-54 q-61 0 -90.5 -22.5t-38.5 -67.5l-102 -582q-20 -117 -49 -207t-77.5 -171.5t-115 -134.5t-163.5 -83.5t-220 -30.5q-53 0 -103.5 9.5t-105.5 35.5t-95 66t-66.5 108t-26.5 156q0 62 12 129l123 705q2 10 2 24q0 34 -22.5 50t-73.5 16h-55q-15 0 -15 16l9 39l4 4 q178 -6 258 -6l264 6l4 -4l-8 -39q-3 -16 -19 -16h-55q-61 0 -90 -22.5t-37 -67.5l-113 -635q-20 -124 -20 -187zM788 1425q-24 0 -24 23q0 24 43 51l289 172l133 -92l-346 -129q-77 -25 -95 -25z" />
<glyph unicode="&#xdb;" horiz-adv-x="1378" d="M469 354q0 -78 26.5 -138.5t69.5 -95t92 -52t101 -17.5q72 0 132 16.5t103.5 43t79 67.5t58.5 82t42 96t29.5 99.5t20.5 101.5l108 619q2 10 2 24q0 34 -22.5 50t-73.5 16h-55q-7 0 -11.5 4.5t-3.5 11.5l9 39l4 4q145 -6 225 -6l225 6l4 -4l-8 -39q-3 -16 -18 -16h-54 q-61 0 -90.5 -22.5t-38.5 -67.5l-102 -582q-20 -117 -49 -207t-77.5 -171.5t-115 -134.5t-163.5 -83.5t-220 -30.5q-53 0 -103.5 9.5t-105.5 35.5t-95 66t-66.5 108t-26.5 156q0 62 12 129l123 705q2 10 2 24q0 34 -22.5 50t-73.5 16h-55q-15 0 -15 16l9 39l4 4 q178 -6 258 -6l264 6l4 -4l-8 -39q-3 -16 -19 -16h-55q-61 0 -90 -22.5t-37 -67.5l-113 -635q-20 -124 -20 -187zM1075 1661q59 -101 162 -193l-43 -43q-114 59 -188 127q-120 -75 -248 -127l-19 43q124 82 248 193h88z" />
<glyph unicode="&#xdc;" horiz-adv-x="1353" d="M748 1407q7 38 40.5 65t71.5 27t58 -26.5t14 -65.5q-8 -38 -39.5 -65t-69.5 -27t-60 27t-15 65zM1044 1407q8 37 39.5 64.5t67.5 27.5q38 0 61 -27.5t15 -64.5q-8 -38 -40.5 -66t-70.5 -28t-59 27.5t-13 66.5zM651 -25q-36 0 -71.5 4.5t-75.5 15.5t-73.5 29.5t-66 46 t-54 65.5t-36.5 88t-14 113.5t14 141.5l136 692q6 29 -2.5 49t-29 29.5t-42.5 13t-51 3.5q-18 0 -15 16l9 39l4 2q155 -2 235 -2q37 0 94 1t93 1q15 0 8 -20l-4 -21q-3 -16 -19 -16q-60 -9 -83 -31.5t-34 -69.5l-120 -618q-13 -63 -18.5 -103.5t-6.5 -96t13.5 -101 t45.5 -84.5q86 -103 224 -103q72 0 133 16.5t105 43t80.5 67.5t60.5 82t44 95.5t31.5 99t22.5 100.5l117 602q9 47 -9.5 68t-70.5 33q-17 4 -15 16l7 23q1 8 8 13t12 5q24 0 62 -1t81 -1l207 2l4 -2l-8 -39q-5 -16 -53 -16q-115 0 -131 -95l-111 -571q-23 -116 -53.5 -205.5 t-80.5 -171t-117.5 -134t-165 -83.5t-220.5 -31z" />
<glyph unicode="&#xdd;" horiz-adv-x="1214" d="M598 147l84 428l-231 601q-22 60 -54 79q-13 11 -55 11h-25q-8 0 -13.5 3t-4.5 11l8 41l2 2q191 -2 217 -2l236 2l2 -2l-8 -39q0 -16 -17 -16h-57q-51 0 -57 -27q-3 -19 14 -59l192 -482l353 482q32 40 35 57q0 2 1 5t1 5q0 11 -11 15t-39 4h-59q-13 0 -8 14l6 41l4 2 q162 -2 189 -2l178 2l4 -2l-8 -41q-3 -14 -23 -14h-45q-43 0 -73 -20t-68 -70l-416 -576l-88 -453q-4 -20 -4 -28q0 -62 98 -62h53q18 0 15 -16l-8 -39l-5 -4q-178 4 -258 4l-264 -4l-4 4l8 39q3 16 21 16h53q61 0 91 22.5t38 67.5zM831 1425q-24 0 -24 23q0 24 43 51 l289 172l133 -92l-346 -129q-77 -25 -95 -25z" />
<glyph unicode="&#xde;" horiz-adv-x="1071" d="M557 981l-117 -598q32 -10 146 -10q47 0 91.5 8.5t92.5 31.5t86.5 59t70 95t46.5 135q8 41 8 84q0 63 -21.5 109t-58 70t-75.5 34.5t-83 10.5q-28 0 -89.5 -10t-96.5 -19zM430 1178q2 8 2 26q0 32 -23 47t-73 15h-55q-7 0 -11.5 4.5t-3.5 11.5l8 39l5 2q178 -2 258 -2 l264 2l4 -2l-8 -39q-3 -16 -19 -16h-53q-62 0 -91.5 -21.5t-37.5 -66.5l-23 -115q74 4 185 4q91 0 160.5 -17t112 -44t69.5 -65t37 -76.5t10 -82.5q0 -30 -8 -80q-10 -49 -34 -99.5t-70 -104t-106.5 -94.5t-150.5 -67t-194 -26q-114 0 -156 15l-33 -179q-4 -20 -4 -28 q0 -62 98 -62h54q17 0 14 -16l-8 -39l-4 -4q-178 4 -258 4l-264 -4l-5 4l9 39q3 16 18 16h55q60 0 90 22.5t39 67.5z" />
<glyph unicode="&#xdf;" horiz-adv-x="1112" d="M524 766l-53 -231l-53 -233l-49.5 -195t-56.5 -192.5t-58 -144.5t-70 -128q-93 -129 -202 -129q-95 0 -132.5 30.5t-37.5 67.5q0 25 18.5 44t56.5 19q44 0 74 -47q14 -21 25.5 -30t33.5 -9q46 0 84 39q41 40 92.5 245.5t90.5 416.5q7 43 16 91l19 104q11 56 16 85l39 207 q0 18 -5 25.5t-20 7.5h-90q-10 0 -10 4q0 20 14.5 43t46.5 23q80 0 109 98q123 453 491 453q130 0 193 -56t63 -133q0 -60 -27 -118t-77 -109t-100 -90.5t-115 -81.5v-4l74 -60q26 -22 67.5 -64.5t63.5 -79t39.5 -87.5t17.5 -105q0 -74 -30.5 -155t-83 -151t-132 -115.5 t-168.5 -45.5q-94 0 -134 39.5t-40 100.5q0 38 10.5 66t26 40.5t28 17.5t21.5 5q47 0 47 -39q0 -29 -20.5 -63t-20.5 -54q0 -16 8.5 -26t25 -14.5t30 -5.5t33.5 -1q47 0 97 58t82 146t32 169q0 209 -205 397l6 27q23 15 50.5 35.5t71 62t76.5 85t58 103t25 117.5 q0 123 -125 123q-44 0 -82 -15t-65.5 -36.5t-52.5 -61t-40.5 -72t-32.5 -88t-26 -90.5t-23 -96z" />
<glyph unicode="&#xe0;" horiz-adv-x="995" d="M840 887q18 -5 40.5 -5.5t56.5 0.5t46 1l-141 -637q-21 -102 -21 -125q0 -16 8.5 -22.5t16.5 -6.5q27 0 115 119l47 -33q-50 -80 -119 -139t-144 -59q-46 0 -64.5 27.5t-18.5 64.5q0 42 20 112l33 107l-4 4q-213 -315 -353 -315q-198 0 -198 276q0 116 50 235.5 t125.5 207.5t167.5 144t173 56q52 0 164 -12zM737 449q23 58 41 145t24 145l7 58q-63 39 -127 39q-67 0 -134.5 -55t-115.5 -137t-78 -178t-30 -177q0 -197 90 -197q49 0 149 109.5t174 247.5zM737 1374l142 -258q14 -23 14 -49q0 -8 -9.5 -15.5t-21.5 -7.5q-14 0 -59 41 l-234 224l4 22q67 47 134 47q14 0 30 -4z" />
<glyph unicode="&#xe1;" horiz-adv-x="995" d="M840 887q18 -5 40.5 -5.5t56.5 0.5t46 1l-141 -637q-21 -102 -21 -125q0 -16 8.5 -22.5t16.5 -6.5q27 0 115 119l47 -33q-50 -80 -119 -139t-144 -59q-46 0 -64.5 27.5t-18.5 64.5q0 42 20 112l33 107l-4 4q-213 -315 -353 -315q-198 0 -198 276q0 116 50 235.5 t125.5 207.5t167.5 144t173 56q52 0 164 -12zM737 449q23 58 41 145t24 145l7 58q-63 39 -127 39q-67 0 -134.5 -55t-115.5 -137t-78 -178t-30 -177q0 -197 90 -197q49 0 149 109.5t174 247.5zM766 1348q2 0 7.5 1t8.5 1q26 0 49.5 -10t35.5 -20.5t23 -23.5l11 -12l2 -22 l-264 -187q-49 -31 -61 -31q-14 0 -22.5 8.5t-8.5 16.5q0 27 20 47z" />
<glyph unicode="&#xe2;" horiz-adv-x="995" d="M840 887q18 -5 40.5 -5.5t56.5 0.5t46 1l-141 -637q-21 -102 -21 -125q0 -16 8.5 -22.5t16.5 -6.5q27 0 115 119l47 -33q-50 -80 -119 -139t-144 -59q-46 0 -64.5 27.5t-18.5 64.5q0 42 20 112l33 107l-4 4q-213 -315 -353 -315q-198 0 -198 276q0 116 50 235.5 t125.5 207.5t167.5 144t173 56q52 0 164 -12zM737 449q23 58 41 145t24 145l7 58q-63 39 -127 39q-67 0 -134.5 -55t-115.5 -137t-78 -178t-30 -177q0 -197 90 -197q49 0 149 109.5t174 247.5zM819 1337q48 -125 148 -266l-49 -27q-101 92 -175 193q-136 -113 -262 -193 l-32 27q185 169 270 266h100z" />
<glyph unicode="&#xe3;" horiz-adv-x="995" d="M840 887q18 -5 40.5 -5.5t56.5 0.5t46 1l-141 -637q-21 -102 -21 -125q0 -16 8.5 -22.5t16.5 -6.5q27 0 115 119l47 -33q-50 -80 -119 -139t-144 -59q-46 0 -64.5 27.5t-18.5 64.5q0 42 20 112l33 107l-4 4q-213 -315 -353 -315q-198 0 -198 276q0 116 50 235.5 t125.5 207.5t167.5 144t173 56q52 0 164 -12zM737 449q23 58 41 145t24 145l7 58q-63 39 -127 39q-67 0 -134.5 -55t-115.5 -137t-78 -178t-30 -177q0 -197 90 -197q49 0 149 109.5t174 247.5zM973 1264l45 -13q-79 -184 -221 -184q-51 0 -115 49q-61 49 -104 49 q-75 0 -121 -98l-47 10q85 183 204 183q67 0 123 -50q64 -53 109 -53q70 0 127 107z" />
<glyph unicode="&#xe4;" horiz-adv-x="995" d="M840 887q18 -5 40.5 -5.5t56.5 0.5t46 1l-141 -637q-21 -102 -21 -125q0 -16 8.5 -22.5t16.5 -6.5q27 0 115 119l47 -33q-50 -80 -119 -139t-144 -59q-46 0 -64.5 27.5t-18.5 64.5q0 42 20 112l33 107l-4 4q-213 -315 -353 -315q-198 0 -198 276q0 116 50 235.5 t125.5 207.5t167.5 144t173 56q52 0 164 -12zM737 449q23 58 41 145t24 145l7 58q-63 39 -127 39q-67 0 -134.5 -55t-115.5 -137t-78 -178t-30 -177q0 -197 90 -197q49 0 149 109.5t174 247.5zM479 1155q0 36 31 72.5t76 36.5q34 0 59 -22t25 -54q0 -36 -31 -72.5t-76 -36.5 q-34 0 -59 22t-25 54zM809 1155q0 37 31 74t75 37q35 0 59.5 -22t24.5 -54q0 -37 -31 -74t-75 -37q-34 0 -59 22t-25 54z" />
<glyph unicode="&#xe5;" horiz-adv-x="995" d="M840 887q18 -5 40.5 -5.5t56.5 0.5t46 1l-141 -637q-21 -102 -21 -125q0 -16 8.5 -22.5t16.5 -6.5q27 0 115 119l47 -33q-50 -80 -119 -139t-144 -59q-46 0 -64.5 27.5t-18.5 64.5q0 42 20 112l33 107l-4 4q-213 -315 -353 -315q-198 0 -198 276q0 116 50 235.5 t125.5 207.5t167.5 144t173 56q52 0 164 -12zM737 449q23 58 41 145t24 145l7 58q-63 39 -127 39q-67 0 -134.5 -55t-115.5 -137t-78 -178t-30 -177q0 -197 90 -197q49 0 149 109.5t174 247.5zM561 1176q0 78 65 143t148 65q66 0 102.5 -39.5t36.5 -91.5q0 -77 -65.5 -143 t-151.5 -66q-64 0 -99.5 39t-35.5 93zM848 1241q0 36 -24 60t-64 24q-54 0 -95.5 -41t-41.5 -94q0 -35 23.5 -59.5t64.5 -24.5q53 0 95 41.5t42 93.5z" />
<glyph unicode="&#xe6;" horiz-adv-x="1406" d="M883 518q57 3 96.5 6t90.5 9.5t85.5 15t70.5 23t57.5 33.5t35.5 46t14 60q0 47 -38 82.5t-101 35.5q-101 0 -184.5 -87.5t-126.5 -223.5zM713 440q-36 -3 -72.5 -8t-90.5 -16t-99.5 -30t-87 -45.5t-65.5 -67.5t-24 -91q0 -53 37 -84.5t115 -31.5q135 0 213 141 q31 57 74 233zM754 684q0 46 -15 79t-38.5 48t-43.5 21t-39 6q-29 0 -60 -6t-63.5 -18.5t-53.5 -38t-21 -60.5q0 -7 2 -15.5t2 -13.5q0 -36 -30 -62t-70 -26q-35 0 -50.5 17.5t-15.5 43.5q0 96 119.5 168t261.5 72q28 0 55 -3.5t69.5 -16t76 -44t49.5 -79.5q65 68 150 105.5 t173 37.5q75 0 132 -17.5t88 -46t46 -58.5t15 -60q0 -45 -20 -82.5t-51.5 -63.5t-82 -46.5t-101 -33t-119.5 -22t-126 -14.5t-131 -9q-12 -57 -12 -112q0 -117 57 -185.5t152 -68.5q79 0 139.5 27.5t124.5 85.5l29 -21q-66 -87 -157 -139.5t-189 -52.5q-66 0 -117.5 14 t-84 38.5t-49.5 44t-32 44.5q-60 -63 -148 -102t-172 -39q-138 0 -209 49.5t-71 136.5q0 306 606 346q25 122 25 172z" />
<glyph unicode="&#xe7;" horiz-adv-x="796" d="M446 -180q-43 0 -96 -13l-10 13l111 160h-23q-63 0 -114.5 32.5t-81.5 83t-46 105t-16 104.5q0 124 39.5 235.5t103.5 189.5t148 123.5t172 45.5q56 0 98.5 -13.5t67.5 -34t40.5 -48.5t21 -53t5.5 -52q0 -45 -31 -68.5t-57 -23.5q-38 0 -55.5 19t-17.5 47q0 30 10 43 t10 39q0 44 -28 63t-58 19q-124 0 -212.5 -133t-88.5 -353q0 -87 13.5 -146t38 -86.5t48.5 -37.5t54 -10q132 0 239 129l37 -31l-34 -45q-12 -16 -43 -47t-72 -52.5t-91 -33.5l-71 -111q24 6 53 6q52 0 85.5 -24.5t33.5 -71.5q0 -76 -75.5 -126t-180.5 -50q-72 0 -144 35 l27 37q40 -14 60 -17.5t55 -3.5q57 0 101 28t44 75q0 24 -19.5 38.5t-50.5 14.5z" />
<glyph unicode="&#xe8;" horiz-adv-x="841" d="M748 758q0 43 -25 60.5t-82 17.5q-204 0 -291 -373q50 4 102 16.5t106 36.5t95.5 57t68 81t26.5 104zM342 408q-2 -17 -2 -70q0 -131 48.5 -195.5t123.5 -64.5q70 0 132.5 40.5t150.5 135.5l45 -33q-89 -122 -185 -181.5t-217 -59.5q-76 0 -129.5 23.5t-83 67.5 t-42.5 97.5t-13 122.5q0 80 20 163t62.5 163t101.5 142.5t146 101t188 38.5q203 0 203 -143q0 -22 -2 -38.5t-13.5 -46t-32 -53t-61.5 -54t-97 -56t-144.5 -52.5t-198.5 -48zM662 1374l141 -258q14 -23 14 -49q0 -8 -9.5 -15.5t-21.5 -7.5q-14 0 -59 41l-233 224l4 22 q63 47 133 47q13 0 31 -4z" />
<glyph unicode="&#xe9;" horiz-adv-x="841" d="M748 758q0 43 -25 60.5t-82 17.5q-204 0 -291 -373q50 4 102 16.5t106 36.5t95.5 57t68 81t26.5 104zM342 408q-2 -17 -2 -70q0 -131 48.5 -195.5t123.5 -64.5q70 0 132.5 40.5t150.5 135.5l45 -33q-89 -122 -185 -181.5t-217 -59.5q-76 0 -129.5 23.5t-83 67.5 t-42.5 97.5t-13 122.5q0 80 20 163t62.5 163t101.5 142.5t146 101t188 38.5q203 0 203 -143q0 -22 -2 -38.5t-13.5 -46t-32 -53t-61.5 -54t-97 -56t-144.5 -52.5t-198.5 -48zM776 1348q2 0 7.5 1t9.5 1q26 0 49 -10t35 -20.5t22.5 -23t11.5 -12.5l2 -22l-264 -187 q-49 -31 -61 -31q-14 0 -22.5 8.5t-8.5 16.5q0 27 21 47z" />
<glyph unicode="&#xea;" horiz-adv-x="841" d="M748 758q0 43 -25 60.5t-82 17.5q-204 0 -291 -373q50 4 102 16.5t106 36.5t95.5 57t68 81t26.5 104zM342 408q-2 -17 -2 -70q0 -131 48.5 -195.5t123.5 -64.5q70 0 132.5 40.5t150.5 135.5l45 -33q-89 -122 -185 -181.5t-217 -59.5q-76 0 -129.5 23.5t-83 67.5 t-42.5 97.5t-13 122.5q0 80 20 163t62.5 163t101.5 142.5t146 101t188 38.5q203 0 203 -143q0 -22 -2 -38.5t-13.5 -46t-32 -53t-61.5 -54t-97 -56t-144.5 -52.5t-198.5 -48zM754 1337q47 -122 147 -266l-49 -27q-103 93 -174 193q-136 -113 -262 -193l-33 27 q185 169 270 266h101z" />
<glyph unicode="&#xeb;" horiz-adv-x="841" d="M748 758q0 43 -25 60.5t-82 17.5q-204 0 -291 -373q50 4 102 16.5t106 36.5t95.5 57t68 81t26.5 104zM342 408q-2 -17 -2 -70q0 -131 48.5 -195.5t123.5 -64.5q70 0 132.5 40.5t150.5 135.5l45 -33q-89 -122 -185 -181.5t-217 -59.5q-76 0 -129.5 23.5t-83 67.5 t-42.5 97.5t-13 122.5q0 80 20 163t62.5 163t101.5 142.5t146 101t188 38.5q203 0 203 -143q0 -22 -2 -38.5t-13.5 -46t-32 -53t-61.5 -54t-97 -56t-144.5 -52.5t-198.5 -48zM428 1155q0 36 31 72.5t76 36.5q34 0 58.5 -22t24.5 -54q0 -36 -31 -72.5t-75 -36.5q-34 0 -59 22 t-25 54zM758 1155q0 37 31 74t75 37q34 0 59 -22t25 -54q0 -37 -31 -74t-75 -37q-34 0 -59 22t-25 54z" />
<glyph unicode="&#xec;" horiz-adv-x="565" d="M410 1374l141 -258q14 -23 14 -49q0 -8 -9 -15.5t-21 -7.5q-15 0 -60 41l-233 224l4 22q63 47 133 47q13 0 31 -4zM502 655l-92 -401q-25 -110 -25 -133q0 -11 6.5 -18.5t11.5 -9t9 -1.5q40 0 125 113l47 -35q-75 -107 -138 -148.5t-133 -41.5q-47 0 -66.5 27.5 t-19.5 64.5q0 44 27 164l100 421q13 60 13 80q0 44 -31 47l-86 9l6 49q204 30 299 63q8 0 8 -6q-37 -139 -61 -244z" />
<glyph unicode="&#xed;" horiz-adv-x="565" d="M637 1376q2 0 7.5 1t8.5 1q26 0 49.5 -9.5t35.5 -20.5t23 -23l11 -12l2 -23l-264 -186q-47 -31 -61 -31t-22.5 8.5t-8.5 16.5q0 26 20 47zM502 655l-92 -401q-25 -110 -25 -133q0 -11 6.5 -18.5t11.5 -9t9 -1.5q40 0 125 113l47 -35q-75 -107 -138 -148.5t-133 -41.5 q-47 0 -66.5 27.5t-19.5 64.5q0 44 27 164l100 421q13 60 13 80q0 44 -31 47l-86 9l6 49q204 30 299 63q8 0 8 -6q-37 -139 -61 -244z" />
<glyph unicode="&#xee;" horiz-adv-x="565" d="M612 1337q48 -125 148 -266l-49 -27q-103 93 -174 193q-139 -114 -263 -193l-32 27q185 169 270 266h100zM502 655l-92 -401q-25 -110 -25 -133q0 -11 6.5 -18.5t11.5 -9t9 -1.5q40 0 125 113l47 -35q-75 -107 -138 -148.5t-133 -41.5q-47 0 -66.5 27.5t-19.5 64.5 q0 44 27 164l100 421q13 60 13 80q0 44 -31 47l-86 9l6 49q204 30 299 63q8 0 8 -6q-37 -139 -61 -244z" />
<glyph unicode="&#xef;" horiz-adv-x="565" d="M266 1155q0 36 31 72.5t76 36.5q34 0 59 -22t25 -54q0 -36 -31 -72.5t-76 -36.5q-34 0 -59 22t-25 54zM596 1155q0 37 31 74t75 37q35 0 59.5 -22t24.5 -54q0 -37 -31 -74t-75 -37q-34 0 -59 22t-25 54zM502 655l-92 -401q-25 -110 -25 -133q0 -11 6.5 -18.5t11.5 -9 t9 -1.5q40 0 125 113l47 -35q-75 -107 -138 -148.5t-133 -41.5q-47 0 -66.5 27.5t-19.5 64.5q0 44 27 164l100 421q13 60 13 80q0 44 -31 47l-86 9l6 49q204 30 299 63q8 0 8 -6q-37 -139 -61 -244z" />
<glyph unicode="&#xf0;" horiz-adv-x="978" d="M168 426q24 102 71 185.5t103.5 136.5t121.5 89.5t124 52t112 15.5q89 0 152 -28q-33 169 -115 307l-258 -150l-28 66l247 143l-24 35q-50 64 -111 119l41 43q106 -65 184 -144l252 146l29 -66l-229 -135l28 -35q170 -224 170 -504q0 -107 -26 -217 q-29 -125 -88.5 -224.5t-136 -161t-162.5 -93t-174 -31.5q-99 0 -168 47t-99 119.5t-30 163.5q0 49 14 121zM504 55q32 0 64.5 9.5t73 37t75.5 70t68 116.5t55 169q28 128 28 245q0 7 -1 17.5t-1 15.5q-24 46 -72.5 72.5t-111.5 26.5q-60 0 -112.5 -24.5t-89.5 -62 t-67 -88.5t-48 -99.5t-29 -98.5q-19 -78 -19 -139q0 -120 51 -193.5t136 -73.5z" />
<glyph unicode="&#xf1;" horiz-adv-x="1081" d="M473 635q132 155 223.5 209.5t180.5 54.5q137 0 137 -164q0 -26 -29 -155l-78 -334q-20 -92 -20 -121q0 -37 22 -37t54.5 28t87.5 93l47 -39q-156 -190 -283 -190q-38 0 -65 22t-27 61q0 58 27 166l79 334q23 95 23 139q0 47 -20.5 72t-53.5 25q-118 0 -325 -277 l-117 -497l-150 -50l-10 25l152 657q12 55 12 80q0 44 -31 47l-86 9l6 49q204 30 299 63q9 0 9 -6l-62 -244l-4 -18zM1057 1274l45 -12q-80 -185 -221 -185q-49 0 -115 49q-62 50 -104 50q-75 0 -121 -99l-47 10q85 183 204 183q66 0 123 -49q63 -54 109 -54q69 0 127 107z " />
<glyph unicode="&#xf2;" horiz-adv-x="915" d="M332 348q0 -93 16 -156t43.5 -91.5t52.5 -39t54 -10.5q65 0 117.5 40t83 98t51.5 130t28.5 130t7.5 104q0 33 -0.5 50t-2 48t-5.5 48l-12 41q-7 25 -19 38.5t-28 27t-39.5 19.5t-52.5 6q-67 0 -120 -33t-85 -83.5t-53 -117.5t-29 -128t-8 -121zM160 332q0 76 19 153.5 t60.5 152t99 132.5t142 93.5t183.5 35.5q72 0 126 -21t84 -52.5t48.5 -78t24 -88.5t5.5 -92q0 -157 -71.5 -293.5t-188 -215t-246.5 -78.5q-74 0 -129 27t-84 64.5t-46.5 90t-22 91t-4.5 79.5zM702 1374l142 -258q14 -23 14 -49q0 -8 -9.5 -15.5t-21.5 -7.5q-14 0 -59 41 l-233 224l4 22q63 47 133 47q14 0 30 -4z" />
<glyph unicode="&#xf3;" horiz-adv-x="915" d="M332 348q0 -93 16 -156t43.5 -91.5t52.5 -39t54 -10.5q65 0 117.5 40t83 98t51.5 130t28.5 130t7.5 104q0 33 -0.5 50t-2 48t-5.5 48l-12 41q-7 25 -19 38.5t-28 27t-39.5 19.5t-52.5 6q-67 0 -120 -33t-85 -83.5t-53 -117.5t-29 -128t-8 -121zM160 332q0 76 19 153.5 t60.5 152t99 132.5t142 93.5t183.5 35.5q72 0 126 -21t84 -52.5t48.5 -78t24 -88.5t5.5 -92q0 -157 -71.5 -293.5t-188 -215t-246.5 -78.5q-74 0 -129 27t-84 64.5t-46.5 90t-22 91t-4.5 79.5zM713 1348q2 0 7.5 1t8.5 1q26 0 49.5 -10t35.5 -20.5t23 -23.5l11 -12l2 -22 l-264 -187q-49 -31 -62 -31t-21.5 8.5t-8.5 16.5q0 27 20 47z" />
<glyph unicode="&#xf4;" horiz-adv-x="915" d="M332 348q0 -93 16 -156t43.5 -91.5t52.5 -39t54 -10.5q65 0 117.5 40t83 98t51.5 130t28.5 130t7.5 104q0 33 -0.5 50t-2 48t-5.5 48l-12 41q-7 25 -19 38.5t-28 27t-39.5 19.5t-52.5 6q-67 0 -120 -33t-85 -83.5t-53 -117.5t-29 -128t-8 -121zM160 332q0 76 19 153.5 t60.5 152t99 132.5t142 93.5t183.5 35.5q72 0 126 -21t84 -52.5t48.5 -78t24 -88.5t5.5 -92q0 -157 -71.5 -293.5t-188 -215t-246.5 -78.5q-74 0 -129 27t-84 64.5t-46.5 90t-22 91t-4.5 79.5zM778 1337q41 -107 146 -266l-47 -27q-125 113 -177 185q-106 -88 -262 -185 l-32 27q195 177 272 266h100z" />
<glyph unicode="&#xf5;" horiz-adv-x="915" d="M332 348q0 -93 16 -156t43.5 -91.5t52.5 -39t54 -10.5q65 0 117.5 40t83 98t51.5 130t28.5 130t7.5 104q0 33 -0.5 50t-2 48t-5.5 48l-12 41q-7 25 -19 38.5t-28 27t-39.5 19.5t-52.5 6q-67 0 -120 -33t-85 -83.5t-53 -117.5t-29 -128t-8 -121zM160 332q0 76 19 153.5 t60.5 152t99 132.5t142 93.5t183.5 35.5q72 0 126 -21t84 -52.5t48.5 -78t24 -88.5t5.5 -92q0 -157 -71.5 -293.5t-188 -215t-246.5 -78.5q-74 0 -129 27t-84 64.5t-46.5 90t-22 91t-4.5 79.5zM795 1167q34 0 62.5 22.5t64.5 84.5l45 -12q-81 -185 -222 -185q-21 0 -43 8.5 t-35.5 17.5t-37.5 27q-66 46 -103 46q-39 0 -66.5 -23.5t-53.5 -75.5l-48 10q45 94 93 138.5t112 44.5q43 0 72.5 -15t62.5 -43q51 -45 97 -45z" />
<glyph unicode="&#xf6;" horiz-adv-x="915" d="M332 348q0 -93 16 -156t43.5 -91.5t52.5 -39t54 -10.5q65 0 117.5 40t83 98t51.5 130t28.5 130t7.5 104q0 33 -0.5 50t-2 48t-5.5 48l-12 41q-7 25 -19 38.5t-28 27t-39.5 19.5t-52.5 6q-67 0 -120 -33t-85 -83.5t-53 -117.5t-29 -128t-8 -121zM160 332q0 76 19 153.5 t60.5 152t99 132.5t142 93.5t183.5 35.5q72 0 126 -21t84 -52.5t48.5 -78t24 -88.5t5.5 -92q0 -157 -71.5 -293.5t-188 -215t-246.5 -78.5q-74 0 -129 27t-84 64.5t-46.5 90t-22 91t-4.5 79.5zM420 1155q0 36 31 72.5t75 36.5q34 0 59 -22t25 -54q0 -36 -31 -72.5t-75 -36.5 q-34 0 -59 22t-25 54zM750 1155q0 37 31 74t75 37q34 0 59 -22t25 -54q0 -37 -31 -74t-75 -37q-35 0 -59.5 22t-24.5 54z" />
<glyph unicode="&#xf7;" horiz-adv-x="1079" d="M471 147q0 47 38.5 85t88.5 38q35 0 57.5 -21.5t22.5 -55.5q0 -50 -40 -86.5t-87 -36.5q-35 0 -57.5 21.5t-22.5 55.5zM618 813q0 48 38.5 86.5t88.5 38.5q35 0 57.5 -23t22.5 -57q0 -49 -40 -86t-87 -37q-36 0 -58 22t-22 56zM1071 549l-22 -100h-811l24 100h809z" />
<glyph unicode="&#xf8;" horiz-adv-x="915" d="M963 977l67 -49l-121 -150q43 -77 43 -211q0 -157 -71.5 -293.5t-188 -215t-246.5 -78.5q-91 0 -153 38l-96 -116l-68 55l100 121q-69 90 -69 254q0 76 19 153.5t60.5 152t99 132.5t142 93.5t183.5 35.5q122 0 190 -55zM768 739q-34 92 -141 92q-67 0 -120 -33t-85 -83.5 t-53 -117.5t-29 -128t-8 -121q0 -71 10 -129zM786 627l-409 -504q42 -72 121 -72q65 0 117.5 40t83 98t51.5 130t28.5 130t7.5 104v74z" />
<glyph unicode="&#xf9;" horiz-adv-x="1067" d="M463 899q49 0 66.5 -18t17.5 -58q0 -48 -33 -176l-88 -338q-20 -79 -20 -133q0 -90 63 -90q71 0 151.5 98t206.5 314l91 389q56 0 153 18l-149 -645q-25 -96 -25 -139q0 -15 10 -22t17 -7q15 0 39.5 29.5t68.5 95.5l47 -33q-115 -204 -248 -204q-47 0 -67.5 28t-20.5 64 q0 46 23 129l31 114l-6 4q-113 -164 -157 -214q-89 -101 -191 -120q-28 -5 -60 -5q-62 0 -99.5 40t-37.5 123q0 61 20 138l92 350q23 81 23 123q0 28 -27 28t-125 -112l-45 35q59 80 136.5 137t142.5 57zM717 1374l141 -258q14 -23 14 -49q0 -8 -9 -15.5t-21 -7.5 q-15 0 -60 41l-233 224l4 22q63 47 133 47q15 0 31 -4z" />
<glyph unicode="&#xfa;" horiz-adv-x="1067" d="M463 899q49 0 66.5 -18t17.5 -58q0 -48 -33 -176l-88 -338q-20 -79 -20 -133q0 -90 63 -90q71 0 151.5 98t206.5 314l91 389q56 0 153 18l-149 -645q-25 -96 -25 -139q0 -15 10 -22t17 -7q15 0 39.5 29.5t68.5 95.5l47 -33q-115 -204 -248 -204q-47 0 -67.5 28t-20.5 64 q0 46 23 129l31 114l-6 4q-113 -164 -157 -214q-89 -101 -191 -120q-28 -5 -60 -5q-62 0 -99.5 40t-37.5 123q0 61 20 138l92 350q23 81 23 123q0 28 -27 28t-125 -112l-45 35q59 80 136.5 137t142.5 57zM883 1348q2 0 7.5 1t8.5 1q26 0 49.5 -10t35.5 -20.5t23 -23.5 l11 -12l2 -22l-264 -187q-49 -31 -62 -31t-21.5 8.5t-8.5 16.5q0 27 20 47z" />
<glyph unicode="&#xfb;" horiz-adv-x="1067" d="M463 899q49 0 66.5 -18t17.5 -58q0 -48 -33 -176l-88 -338q-20 -79 -20 -133q0 -90 63 -90q71 0 151.5 98t206.5 314l91 389q56 0 153 18l-149 -645q-25 -96 -25 -139q0 -15 10 -22t17 -7q15 0 39.5 29.5t68.5 95.5l47 -33q-115 -204 -248 -204q-47 0 -67.5 28t-20.5 64 q0 46 23 129l31 114l-6 4q-113 -164 -157 -214q-89 -101 -191 -120q-28 -5 -60 -5q-62 0 -99.5 40t-37.5 123q0 61 20 138l92 350q23 81 23 123q0 28 -27 28t-125 -112l-45 35q59 80 136.5 137t142.5 57zM877 1337q37 -99 145 -266l-47 -27q-125 113 -176 185 q-106 -88 -262 -185l-33 27q195 177 272 266h101z" />
<glyph unicode="&#xfc;" horiz-adv-x="1067" d="M463 899q49 0 66.5 -18t17.5 -58q0 -48 -33 -176l-88 -338q-20 -79 -20 -133q0 -90 63 -90q71 0 151.5 98t206.5 314l91 389q56 0 153 18l-149 -645q-25 -96 -25 -139q0 -15 10 -22t17 -7q15 0 39.5 29.5t68.5 95.5l47 -33q-115 -204 -248 -204q-47 0 -67.5 28t-20.5 64 q0 46 23 129l31 114l-6 4q-113 -164 -157 -214q-89 -101 -191 -120q-28 -5 -60 -5q-62 0 -99.5 40t-37.5 123q0 61 20 138l92 350q23 81 23 123q0 28 -27 28t-125 -112l-45 35q59 80 136.5 137t142.5 57zM518 1155q0 36 31 72.5t76 36.5q34 0 59 -22t25 -54q0 -36 -31 -72.5 t-76 -36.5q-34 0 -59 22t-25 54zM848 1155q0 37 31 74t75 37q34 0 59 -22t25 -54q0 -37 -31 -74t-75 -37q-34 0 -59 22t-25 54z" />
<glyph unicode="&#xfd;" horiz-adv-x="972" d="M152 -467q-41 0 -82 19.5t-41 62.5q0 35 24.5 64.5t89.5 29.5q22 0 50 -20q19 -21 45 -21q29 0 101.5 57t125.5 148l57 94q-67 373 -160 776q-11 48 -40 48q-31 0 -80 -56q-11 -7 -21 -3.5t-14 9.5l-19 25q103 133 195 133q50 0 79.5 -32t49.5 -113q74 -306 127 -592 l225 368q34 59 46 89t12 55q0 18 -33 51q-43 37 -43 92q0 33 26.5 57.5t59.5 24.5q40 0 72 -34.5t32 -86.5q0 -94 -112 -282l-389 -639q-93 -152 -197 -238t-186 -86zM807 1350q2 0 7.5 1t8.5 1q26 0 49.5 -10t35.5 -20.5t23 -23.5l11 -12l2 -22l-264 -187q-48 -30 -62 -30 t-22 8.5t-8 15.5q0 27 20 47z" />
<glyph unicode="&#xfe;" horiz-adv-x="1024" d="M109 -330l223 969q-100 -79 -158 -162l-39 27q61 103 217 225l101 424q14 63 14 102q0 32 -10.5 45t-32.5 13l-64 4q-10 0 -10 10l6 49q64 5 155 22t132 32q25 0 25 -21l-52 -215l-81 -367q124 72 264 72q124 0 199 -85t75 -222q0 -70 -25 -152t-74 -163t-113.5 -147.5 t-153 -108t-183.5 -41.5q-105 0 -172 67l-90 -377q-7 -20 -2 -35t10 -23.5t18 -14t21.5 -7.5t20.5 -4l39 -6q12 -3 12 -16v-41l-4 -4q-139 4 -219 4q-33 0 -86 -3t-90 -6l-37 -3l-4 4v39q0 12 20 16l39 6q49 7 74 29t35 65zM905 559q0 42 -8 81t-26.5 77.5t-54.5 62 t-85 23.5q-109 0 -217 -55l-141 -611q53 -86 155 -86q80 0 146.5 37.5t108 95t70 128t40.5 133t12 114.5z" />
<glyph unicode="&#xff;" horiz-adv-x="972" d="M152 -467q-41 0 -82 19.5t-41 62.5q0 35 24.5 64.5t89.5 29.5q22 0 50 -20q19 -21 45 -21q29 0 101.5 57t125.5 148l57 94q-67 373 -160 776q-11 48 -40 48q-31 0 -80 -56q-11 -7 -21 -3.5t-14 9.5l-19 25q103 133 195 133q50 0 79.5 -32t49.5 -113q74 -306 127 -592 l225 368q34 59 46 89t12 55q0 18 -33 51q-43 37 -43 92q0 33 26.5 57.5t59.5 24.5q40 0 72 -34.5t32 -86.5q0 -94 -112 -282l-389 -639q-93 -152 -197 -238t-186 -86zM455 1155q0 36 31 72.5t75 36.5q34 0 59 -22t25 -54q0 -36 -31 -72.5t-75 -36.5q-34 0 -59 22t-25 54z M784 1155q0 38 31 74.5t76 36.5q34 0 59 -22t25 -54q0 -38 -31 -74.5t-76 -36.5q-34 0 -59 22t-25 54z" />
<glyph unicode="&#x152;" horiz-adv-x="1665" d="M883 1251q-84 0 -156 -35t-122.5 -92t-91 -132t-65.5 -151.5t-41.5 -154.5t-23 -137t-6.5 -103q0 -188 83.5 -284t213.5 -96h24q57 0 83.5 18.5t35.5 62.5l217 1029q4 10 4 28q0 28 -19.5 37.5t-68.5 9.5h-67zM199 471q0 88 20.5 183t59.5 190.5t101 181.5t139.5 152.5 t182 105.5t220.5 39q137 -2 225 -2h657l-32 -285l-54 -6v12q0 46 -13.5 89.5t-46.5 75.5t-79 32h-299q-38 0 -58.5 -14.5t-27.5 -50.5l-90 -424h207q49 0 73.5 21t45.5 69l24 61q8 17 19 17h43q6 0 6 -9q-13 -44 -28 -87l-19 -60q-5 -15 -12 -49t-12 -75.5t-13 -119.5l-6 -6 h-46q-14 0 -14 14l2 64v8q0 42 -17 62t-61 20h-209l-112 -533q-2 -8 -2 -22q0 -45 59 -45h307q91 0 155.5 67.5t115.5 190.5l51 -10l-121 -328h-676l-200 -4q-226 0 -345.5 129.5t-119.5 345.5z" />
<glyph unicode="&#x153;" horiz-adv-x="1443" d="M332 350q0 -75 10.5 -132t26.5 -88.5t38.5 -51t41.5 -25.5t40 -6q66 0 118 40.5t82 99.5t49.5 132.5t26.5 131t7 104.5q0 39 -1 65t-5.5 63t-14.5 61t-26 47.5t-42.5 35t-61.5 11.5q-68 0 -120.5 -33.5t-83.5 -84.5t-51 -119t-27 -129t-7 -122zM160 334q0 76 18.5 154 t58.5 153.5t97 133.5t140.5 94t182.5 36q215 0 265 -188q148 182 372 182q203 0 203 -143q0 -22 -2 -38.5t-13.5 -46t-32 -53t-61.5 -54t-97 -56t-144.5 -52.5t-198.5 -48q-2 -17 -2 -70q0 -131 48.5 -195.5t123.5 -64.5q71 0 132.5 40.5t150.5 135.5l45 -33 q-89 -122 -185 -181.5t-217 -59.5q-204 0 -251 178q-73 -86 -165 -134.5t-190 -48.5q-61 0 -110.5 27t-79.5 67.5t-51 91t-29 94t-8 79.5zM1354 758q0 43 -25 60.5t-82 17.5q-204 0 -291 -373q50 4 102 16.5t106 36.5t95.5 57t68 81t26.5 104z" />
<glyph unicode="&#x178;" horiz-adv-x="1214" d="M598 147l84 428l-231 601q-22 60 -54 79q-13 11 -55 11h-25q-8 0 -13.5 3t-4.5 11l8 41l2 2q191 -2 217 -2l236 2l2 -2l-8 -39q0 -16 -17 -16h-57q-51 0 -57 -27q-3 -19 14 -59l192 -482l353 482q32 40 35 57q0 2 1 5t1 5q0 11 -11 15t-39 4h-59q-13 0 -8 14l6 41l4 2 q162 -2 189 -2l178 2l4 -2l-8 -41q-3 -14 -23 -14h-45q-43 0 -73 -20t-68 -70l-416 -576l-88 -453q-4 -20 -4 -28q0 -62 98 -62h53q18 0 15 -16l-8 -39l-5 -4q-178 4 -258 4l-264 -4l-4 4l8 39q3 16 21 16h53q61 0 91 22.5t38 67.5zM735 1626q34 0 56 -22t22 -54 q0 -46 -35.5 -78t-75.5 -32q-34 0 -55.5 22t-21.5 56q0 45 34.5 76.5t75.5 31.5zM1065 1628q33 0 55.5 -22.5t22.5 -55.5q0 -45 -35 -76.5t-76 -31.5q-34 0 -56 22t-22 54q0 46 35 78t76 32z" />
<glyph unicode="&#x2c6;" horiz-adv-x="714" d="M731 1368q41 -107 146 -266l-48 -27l-66 61q-18 17 -51.5 53t-58.5 71q-114 -94 -262 -185l-33 27q191 173 273 266h100z" />
<glyph unicode="&#x2dc;" horiz-adv-x="598" d="M721 1266q35 0 63.5 22.5t63.5 83.5l45 -12q-79 -184 -221 -184q-49 0 -117 53q-67 45 -102 45q-39 0 -66.5 -23t-54.5 -75l-47 10q44 94 92 138t112 44q30 0 57 -9.5t41.5 -19.5t37.5 -28q47 -45 96 -45z" />
<glyph unicode="&#x2000;" horiz-adv-x="840" />
<glyph unicode="&#x2001;" horiz-adv-x="1681" />
<glyph unicode="&#x2002;" horiz-adv-x="840" />
<glyph unicode="&#x2003;" horiz-adv-x="1681" />
<glyph unicode="&#x2004;" horiz-adv-x="560" />
<glyph unicode="&#x2005;" horiz-adv-x="420" />
<glyph unicode="&#x2006;" horiz-adv-x="280" />
<glyph unicode="&#x2007;" horiz-adv-x="280" />
<glyph unicode="&#x2008;" horiz-adv-x="210" />
<glyph unicode="&#x2009;" horiz-adv-x="336" />
<glyph unicode="&#x200a;" horiz-adv-x="93" />
<glyph unicode="&#x2010;" horiz-adv-x="681" d="M647 483h-465q-10 0 -17 8.5t-7 20.5q2 4 2 6q5 25 26 50.5t37 25.5h469q23 0 23 -25v-12q-3 -19 -26 -46.5t-42 -27.5z" />
<glyph unicode="&#x2011;" horiz-adv-x="681" d="M647 483h-465q-10 0 -17 8.5t-7 20.5q2 4 2 6q5 25 26 50.5t37 25.5h469q23 0 23 -25v-12q-3 -19 -26 -46.5t-42 -27.5z" />
<glyph unicode="&#x2013;" horiz-adv-x="1093" d="M195 588h933l-18 -101h-934z" />
<glyph unicode="&#x2014;" horiz-adv-x="1519" d="M174 588h1401l-21 -101h-1398z" />
<glyph unicode="&#x2018;" horiz-adv-x="548" d="M657 1124q0 -45 -36 -73.5t-84 -28.5q-49 0 -80 35.5t-31 95.5q0 35 7.5 72t28 79.5t52.5 77.5t85.5 64t121.5 41q25 -19 16 -47q-78 -18 -145.5 -76t-67.5 -102q0 -17 10.5 -28.5t21 -15.5t32.5 -10q69 -18 69 -84z" />
<glyph unicode="&#x2019;" horiz-adv-x="548" d="M416 1327q0 46 36 74.5t85 28.5q48 0 79 -36t31 -96q0 -35 -7.5 -71.5t-28 -79t-52.5 -77.5t-85.5 -64t-121.5 -41q-25 19 -16 47q78 18 145.5 76t67.5 102q0 17 -10.5 28.5t-21.5 15.5t-32 9q-69 18 -69 84z" />
<glyph unicode="&#x201a;" horiz-adv-x="548" d="M178 92q0 46 36.5 74.5t84.5 28.5t79.5 -36t31.5 -96q0 -35 -7.5 -71.5t-28.5 -79t-52.5 -77.5t-85 -64t-121.5 -41q-26 18 -17 47q78 18 145.5 76t67.5 102q0 17 -10 28.5t-21 15.5t-32 9q-70 18 -70 84z" />
<glyph unicode="&#x201c;" horiz-adv-x="768" d="M930 1124q0 -45 -36.5 -73.5t-84.5 -28.5q-49 0 -80 35.5t-31 95.5q0 35 7.5 72t28.5 79.5t52.5 77.5t85 64t121.5 41q23 -19 17 -47q-79 -18 -146 -76t-67 -102q0 -17 10 -28.5t20.5 -15.5t32.5 -10q70 -18 70 -84zM573 1124q0 -45 -36 -73.5t-84 -28.5q-49 0 -80 35.5 t-31 95.5q0 35 7.5 72t28 79.5t52.5 77.5t85.5 64t121.5 41q22 -19 16 -47q-79 -18 -146 -76t-67 -102q0 -17 10.5 -28.5t21 -15.5t32.5 -10q69 -18 69 -84z" />
<glyph unicode="&#x201d;" horiz-adv-x="768" d="M383 1327q0 46 36 74.5t85 28.5q48 0 79 -36t31 -96q0 -35 -7.5 -71.5t-28 -79t-52.5 -77.5t-85.5 -64t-121.5 -41q-24 18 -18 47q79 17 147 75.5t68 102.5q0 17 -10.5 28.5t-21 15.5t-31.5 9q-70 18 -70 84zM739 1327q0 46 36.5 74.5t84.5 28.5q49 0 80 -36t31 -96 q0 -35 -7.5 -71.5t-28.5 -79t-52.5 -77.5t-85 -64t-121.5 -41q-25 18 -19 47q79 17 147 75.5t68 102.5q0 17 -10 28.5t-21 15.5t-32 9q-70 18 -70 84z" />
<glyph unicode="&#x201e;" horiz-adv-x="768" d="M109 90q0 46 36 74.5t84 28.5q49 0 80 -36t31 -96q0 -35 -7.5 -71.5t-28 -79t-52.5 -77.5t-85.5 -64t-121.5 -41q-24 18 -18 47q79 18 147 76t68 102q0 17 -10.5 28.5t-21.5 15.5t-32 9q-69 18 -69 84zM465 90q0 46 36 74.5t85 28.5q48 0 79 -36t31 -96q0 -35 -7.5 -71.5 t-28 -79t-52.5 -77.5t-85.5 -64t-121.5 -41q-24 18 -18 47q79 17 147 75.5t68 102.5q0 17 -10.5 28.5t-21 15.5t-31.5 9q-70 18 -70 84z" />
<glyph unicode="&#x2022;" horiz-adv-x="718" d="M565 897q58 0 99 -20q47 -27 67 -58q27 -32 37 -82q4 -12 4 -41t-6 -59q-11 -49 -43 -100q-41 -56 -76 -82q-41 -35 -94 -58q-53 -18 -107 -18q-55 0 -96 20q-47 27 -69 58q-29 37 -35 84q-4 14 -4 43t6 59q13 57 45 96q33 52 76 82q39 32 92 56q50 20 104 20z" />
<glyph unicode="&#x2026;" horiz-adv-x="1533" d="M799 195q40 0 67 -26t27 -65q0 -48 -37.5 -87.5t-89.5 -39.5q-40 0 -67 27.5t-27 67.5q0 44 37 83.5t90 39.5zM256 195q40 0 67 -26t27 -65q0 -48 -37.5 -87.5t-89.5 -39.5q-40 0 -67 27.5t-27 67.5q0 44 37 83.5t90 39.5zM1339 195q41 0 68 -26t27 -65q0 -47 -37.5 -87 t-89.5 -40q-41 0 -68 27.5t-27 67.5q0 44 37.5 83.5t89.5 39.5z" />
<glyph unicode="&#x202f;" horiz-adv-x="336" />
<glyph unicode="&#x2039;" horiz-adv-x="727" d="M760 881l-21 -111q-197 -216 -350 -330q115 -108 221 -327l-20 -111q-190 288 -373 399l16 80q249 154 527 400z" />
<glyph unicode="&#x203a;" horiz-adv-x="727" d="M139 0l23 111q177 200 350 329q-114 108 -223 328l22 111q185 -281 371 -400l-14 -80q-247 -149 -529 -399z" />
<glyph unicode="&#x205f;" horiz-adv-x="420" />
<glyph unicode="&#x20ac;" d="M152 631l6 20l49 49h51q72 230 216 364t319 134q56 0 140 -16.5t111 -14.5q-18 -111 -18 -299l-63 -10q-2 45 -7.5 81t-19 72.5t-33.5 60.5t-52.5 39t-76.5 15q-114 0 -206.5 -119t-145.5 -307h452l-49 -69h-419q-5 -13 -9 -37l-12 -68h385l-51 -69h-342 q-46 -396 205 -396q42 0 80.5 16.5t65 38t56 62.5t46.5 71l44 81l60 -15q-16 -42 -69 -153.5t-68 -155.5q-26 2 -111 -14.5t-141 -16.5q-179 0 -267 129.5t-69 352.5h-121l4 18l49 51h76q1 8 4 23t4 22q7 38 13 60h-86z" />
<glyph unicode="&#x2122;" horiz-adv-x="1628" d="M559 698q-5 -24 7 -36.5t44 -12.5h31q9 0 6 -10l-4 -27l-2 -2q-129 2 -170 2l-168 -2l-2 2l4 27q3 10 12 10h31q64 0 72 49l104 543q5 25 0.5 33t-20.5 8h-103q-33 0 -52 -18.5t-50 -85.5l-43 12l76 184l47 -16q-8 -23 -12 -23h479q-2 0 -2 23l53 16l2 -186l-47 -10 q-4 67 -16 85.5t-45 18.5h-91q-16 0 -24 -9t-12 -34zM1518 705l43 403l-299 -498q-15 -20 -37 -20q-25 0 -31 20l-111 488q-42 -176 -104 -396q0 -2 -1 -6t-1 -6q-10 -47 4 -47h31q12 0 21.5 -3.5t8.5 -10.5l-2 -17l-8 -12q-80 4 -125 4l-96 -4l-8 12l4 17q3 14 39 14h28 q14 0 35 62l148 544v6l2 5q6 34 -12 34h-33q-33 3 -33 13l2 16l14 12h183l123 -542l323 542h170l4 -12l-4 -16q-2 -13 -37 -13h-30q-19 0 -25 -32l-2 -13l-60 -544q-3 -25 -0.5 -43.5t13.5 -18.5h28q38 0 35 -14l-2 -17l-12 -12q-90 4 -135 4l-135 -4l-11 12l2 17 q3 14 39 14h29q12 0 23 47q0 2 1 7t1 8z" />
</font>
</defs>
</svg>
