<?xml version="1.0" standalone="no"?>
<!DOCTYPE svg PUBLIC "-//W3C//DTD SVG 1.1//EN" "http://www.w3.org/Graphics/SVG/1.1/DTD/svg11.dtd" >
<svg xmlns="http://www.w3.org/2000/svg">
<metadata>
This is a custom SVG webfont generated by Font Squirrel.
</metadata>
<defs>
<font id="webfonthYzg65YD" horiz-adv-x="556" >
<font-face units-per-em="1000" ascent="784" descent="-216" />
<missing-glyph horiz-adv-x="278" />
<glyph unicode=" "  horiz-adv-x="278" />
<glyph unicode="&#x09;" horiz-adv-x="278" />
<glyph unicode="&#xa0;" horiz-adv-x="278" />
<glyph unicode="!" horiz-adv-x="278" d="M212 379l-67 -211h-40l23 211l74 350h84zM153 103l-22 -103h-84l22 103h84z" />
<glyph unicode="&#x22;" horiz-adv-x="355" d="M405 709l-24 -111l-55 -134h-39v134l24 111h94zM246 709l-24 -111l-55 -134h-39v134l24 111h94z" />
<glyph unicode="#" d="M599 503l-14 -64h-105l-73 -184h107l-14 -64h-118l-83 -211h-76l83 211h-125l-83 -211h-76l83 211h-101l14 64h112l73 184h-109l13 64h121l77 194h76l-76 -194h124l77 194h76l-77 -194h94zM404 439h-124l-74 -184h125z" />
<glyph unicode="$" d="M515 243q0 -114 -73 -188.5t-194 -77.5l-22 -103h-59l22 103q-88 14 -129 51.5t-41 105.5q0 29 8 74h79l-1 -11q-3 -29 -3 -47q0 -41 23 -64.5t78 -39.5l58 272q-90 31 -114 52q-45 39 -45 99q0 103 65.5 171t178.5 76l11 54h59l-11 -54q75 -4 116.5 -43.5t41.5 -107.5 q0 -22 -6 -46h-79l1 15q1 9 1 21q0 39 -24.5 64t-65.5 27l-53 -249q90 -28 121 -48q57 -38 57 -106zM280 405l51 240q-63 -4 -104.5 -46t-41.5 -98q0 -37 21.5 -58.5t73.5 -37.5zM427 211q0 36 -24.5 58t-84.5 40l-56 -263q79 6 122 49t43 116z" />
<glyph unicode="%" horiz-adv-x="889" d="M775 709l-550 -729h-66l550 729h66zM433 552q0 -81 -64.5 -143.5t-148.5 -62.5q-59 0 -97.5 37.5t-38.5 94.5q0 79 65 141.5t146 62.5q58 0 98 -37.5t40 -92.5zM363 534q0 37 -23 59.5t-61 22.5q-48 0 -86.5 -37.5t-38.5 -84.5q0 -35 23.5 -58.5t58.5 -23.5q49 0 88 37.5 t39 84.5zM845 190q0 -81 -64.5 -143.5t-148.5 -62.5q-59 0 -97.5 37.5t-38.5 94.5q0 79 65 141.5t146 62.5q58 0 98 -37.5t40 -92.5zM775 172q0 37 -23 59.5t-61 22.5q-48 0 -86.5 -37.5t-38.5 -84.5q0 -35 23.5 -58.5t58.5 -23.5q49 0 88 37.5t39 84.5z" />
<glyph unicode="&#x26;" horiz-adv-x="667" d="M584 0h-106l-46 78q-68 -56 -118.5 -78.5t-110.5 -22.5q-79 0 -124.5 40.5t-45.5 110.5q0 83 48 141.5t157 120.5l-9 23l-18 42q-14 34 -14 68q0 73 63 129.5t145 56.5q61 0 97 -33t36 -89q0 -65 -44 -116t-137 -93l98 -163q43 50 60 119h79q-20 -99 -100 -183zM455 574 q0 30 -18.5 47.5t-50.5 17.5q-44 0 -75 -31t-31 -75q0 -21 8 -38.5t39 -60.5q69 35 98.5 67t29.5 73zM398 137l-119 199q-84 -45 -121 -86.5t-37 -90.5t29.5 -77t79.5 -28q69 0 168 83z" />
<glyph unicode="'" horiz-adv-x="191" d="M242 709l-24 -111l-55 -134h-39v134l24 111h94z" />
<glyph unicode="(" horiz-adv-x="333" d="M196 -213h-55q-78 137 -78 329q0 152 73.5 314t204.5 299h55q-255 -313 -255 -650q0 -149 55 -292z" />
<glyph unicode=")" horiz-adv-x="333" d="M275 407q0 -156 -73.5 -320t-203.5 -300h-55q124 152 189.5 317t65.5 327q0 158 -55 298h55q35 -62 56 -149.5t21 -172.5z" />
<glyph unicode="*" horiz-adv-x="389" d="M421 593l-113 -27l53 -91l-58 -37l-44 96l-81 -95l-47 40l92 88l-104 31l30 59l100 -40l20 112h62l-29 -112l110 38z" />
<glyph unicode="+" horiz-adv-x="584" d="M516 216h-190v-190h-68v190h-190v68h190v190h68v-190h190v-68z" />
<glyph unicode="," horiz-adv-x="278" d="M164 103l-26 -119q-14 -62 -47 -97t-80 -34h-6l8 38q36 0 54.5 24t28.5 85h-59l22 103h105z" />
<glyph unicode="-" horiz-adv-x="333" d="M286 240h-239l15 72h239z" />
<glyph unicode="." horiz-adv-x="278" d="M163 103l-22 -103h-104l22 103h104z" />
<glyph unicode="/" horiz-adv-x="278" d="M384 729l-391 -749h-55l391 749h55z" />
<glyph unicode="0" d="M548 514q0 -108 -31 -223t-79 -184q-84 -122 -210 -122q-80 0 -129 50t-49 143q0 108 31.5 224t78.5 185q83 122 208 122q85 0 132.5 -51.5t47.5 -143.5zM460 504q0 61 -27.5 94.5t-76.5 33.5q-94 0 -150 -123q-28 -62 -48 -155.5t-20 -164.5q0 -59 27 -93t74 -34 q49 0 85.5 30t66.5 94q28 60 48.5 153.5t20.5 164.5z" />
<glyph unicode="1" d="M448 709l-151 -709h-88l108 505h-159l13 63q108 15 143.5 37.5t75.5 103.5h58z" />
<glyph unicode="2" d="M570 537q0 -150 -198 -250l-112 -57q-140 -71 -163 -143h377l-19 -87h-471q33 121 83 179.5t180 127.5l104 52q62 31 96.5 74.5t34.5 91.5t-32 77.5t-84 29.5q-71 0 -114.5 -41t-66.5 -128h-88q29 127 97 186.5t184 59.5q89 0 140.5 -47t51.5 -125z" />
<glyph unicode="3" d="M506 253q0 -112 -80.5 -190t-209.5 -78q-94 0 -143.5 43t-49.5 124q0 24 5 62h88l-2 -13q-3 -16 -3 -39q0 -46 32.5 -73t85.5 -27q84 0 136.5 48.5t52.5 129.5q0 43 -35 67t-97 24q-24 0 -45 -2l16 75h18q98 0 142 35.5t44 105.5q0 40 -28.5 63.5t-77.5 23.5 q-67 0 -108.5 -36t-59.5 -116h-88q32 122 98 175.5t170 53.5q82 0 132 -40t50 -106t-28.5 -111t-92.5 -81q42 -21 60 -48t18 -70z" />
<glyph unicode="4" d="M523 248l-17 -78h-106l-36 -170h-88l36 170h-299l20 92l416 447h66l-98 -461h106zM329 248l65 308l-286 -308h221z" />
<glyph unicode="5" d="M517 295q0 -131 -87.5 -220.5t-206.5 -89.5q-91 0 -146 43.5t-55 131.5v22h88q4 -120 125 -120q85 0 139.5 57.5t54.5 149.5q0 58 -33 89.5t-93 31.5q-44 0 -73.5 -13.5t-75.5 -53.5h-80l132 371h370l-18 -87h-300l-67 -183q70 43 140 43q85 0 135.5 -47t50.5 -125z" />
<glyph unicode="6" d="M516 271q0 -116 -83.5 -201t-194.5 -85q-89 0 -141.5 50t-52.5 136q0 94 30.5 207.5t73.5 181.5q95 149 237 149q80 0 128 -43t48 -115q0 -16 -1 -27h-88l1 5q-2 47 -28.5 75t-73.5 28q-76 0 -133 -73.5t-79 -200.5q84 84 179 84q80 0 129 -47t49 -124zM428 256 q0 49 -31.5 79t-82.5 30q-77 0 -129.5 -54t-52.5 -133q0 -53 33.5 -84.5t85.5 -31.5q75 0 126 55.5t51 138.5z" />
<glyph unicode="7" d="M601 613q-131 -128 -249 -301t-167 -312h-98q66 154 155.5 282.5t264.5 324.5h-383l19 87h475z" />
<glyph unicode="8" d="M511 243q0 -105 -84 -181.5t-194 -76.5q-95 0 -151.5 44t-56.5 120q0 152 158 224l-12 10q-31 25 -41.5 44.5t-10.5 52.5q0 95 75 162t177 67q83 0 133 -41t50 -107q0 -56 -25 -98t-86 -80l-16 -10q84 -48 84 -130zM466 545q0 41 -29 64t-80 23q-65 0 -107.5 -40 t-42.5 -101q0 -39 28.5 -61t78.5 -22q66 0 109 39.5t43 97.5zM423 230q0 49 -35 76.5t-94 27.5q-76 0 -128.5 -49t-52.5 -121q0 -47 35 -74.5t91 -27.5q79 0 131.5 47.5t52.5 120.5z" />
<glyph unicode="9" d="M509 274q-36 -134 -116.5 -211.5t-182.5 -77.5q-80 0 -127.5 43t-47.5 115q0 16 1 27h87q0 -52 25.5 -80t73.5 -28q151 0 211 270q-57 -48 -91 -64t-87 -16q-81 0 -129 47t-48 126q0 108 78 196t198 88q90 0 142.5 -51.5t52.5 -132.5q0 -102 -40 -251zM462 518 q0 50 -34.5 82t-85.5 32q-73 0 -125 -56t-52 -136q0 -53 30 -82t84 -29q76 0 129.5 55t53.5 134z" />
<glyph unicode=":" horiz-adv-x="278" d="M166 103l-22 -103h-104l22 103h104zM256 524l-22 -103h-104l14 103h112z" />
<glyph unicode=";" horiz-adv-x="278" d="M252 524l-22 -103h-104l22 103h104zM164 103l-26 -119q-14 -62 -47 -97t-80 -34h-6l8 38q36 0 54.5 24t28.5 85h-59l22 103h105z" />
<glyph unicode="&#x3c;" horiz-adv-x="584" d="M448 -69l-334 293v52l334 293v-90l-260 -229l260 -229v-90z" />
<glyph unicode="=" horiz-adv-x="584" d="M516 307h-448v68h448v-68zM516 125h-448v68h448v-68z" />
<glyph unicode="&#x3e;" horiz-adv-x="584" d="M448 224l-334 -293v90l260 229l-260 229v90l334 -293v-52z" />
<glyph unicode="?" d="M574 590q0 -58 -34 -110.5t-111 -109.5q-56 -42 -75 -64.5t-29 -59.5l-10 -47h-90l12 55q10 45 32 71.5t104 91.5q58 46 81.5 82t23.5 79q0 38 -30 62t-77 24q-66 0 -103.5 -37.5t-54.5 -119.5h-85q47 234 265 234q85 0 133 -43t48 -108zM295 103l-22 -103h-90l22 103h90 z" />
<glyph unicode="@" horiz-adv-x="1015" d="M986 434q0 -158 -102 -267.5t-238 -109.5q-48 0 -73.5 16.5t-25.5 46.5v14l-45 -32q-20 -14 -36 -23t-33 -13t-38 -4q-61 0 -98 38t-37 101q0 74 47.5 150t121.5 124.5t147 48.5q91 0 109 -89l36 66h82l-149 -280q-24 -45 -24 -58q0 -14 12.5 -25t28.5 -11 q53 0 107.5 43.5t89.5 111t35 132.5q0 108 -83 179t-210 71q-121 0 -235.5 -67.5t-185.5 -176.5t-71 -224q0 -117 85 -189t222 -72q82 0 204 32l13 -67q-115 -42 -245 -42q-150 0 -258.5 90.5t-108.5 233.5q0 137 81 266t221.5 211t298.5 82q154 0 254.5 -87t100.5 -220z M632 390q0 65 -68 65q-74 0 -143 -82.5t-69 -162.5q0 -37 21.5 -61.5t54.5 -24.5q46 0 95 48.5t79 111t30 106.5z" />
<glyph unicode="A" horiz-adv-x="667" d="M603 0h-102l-27 219h-285l-123 -219h-99l415 729h120zM464 297l-40 333l-191 -333h231z" />
<glyph unicode="B" horiz-adv-x="667" d="M622 258q0 -110 -77.5 -184t-185.5 -74h-330l155 729h296q84 0 132.5 -39.5t48.5 -105.5q0 -67 -35.5 -119t-100.5 -81q53 -23 75 -51.5t22 -74.5zM565 561q0 86 -124 86h-180l-50 -232h180q86 0 130 40t44 106zM526 242q0 91 -106 91h-226l-54 -251h227q70 0 114.5 45 t44.5 115z" />
<glyph unicode="C" horiz-adv-x="722" d="M685 266q-64 -151 -149.5 -217.5t-217.5 -66.5q-119 0 -187 72t-68 193q0 94 34.5 191t93.5 168q117 141 292 141q106 0 168.5 -62t68.5 -182h-96q-12 163 -158 163q-136 0 -226 -133q-81 -121 -81 -268q0 -91 47.5 -146.5t125.5 -55.5q94 0 150 46.5t105 156.5h98z" />
<glyph unicode="D" horiz-adv-x="722" d="M709 488q0 -206 -112.5 -347t-275.5 -141h-282l155 729h282q109 0 171 -67.5t62 -173.5zM613 480q0 78 -45.5 122.5t-125.5 44.5h-171l-121 -565h172q129 0 210 112.5t81 285.5z" />
<glyph unicode="E" horiz-adv-x="667" d="M563 0h-523l155 729h506l-17 -82h-412l-50 -233h396l-18 -82h-395l-54 -250h429z" />
<glyph unicode="F" horiz-adv-x="611" d="M667 647h-395l-50 -233h347l-17 -82h-347l-71 -332h-94l155 729h489z" />
<glyph unicode="G" horiz-adv-x="778" d="M743 385l-82 -385h-59l-5 86q-69 -58 -129 -81t-139 -23q-121 0 -195 75t-74 209q0 118 55 227.5t159 181.5t232 72q117 0 185 -60.5t68 -161.5v-6v-11h-91q-1 75 -51 116.5t-129 41.5q-140 0 -236 -115t-96 -269q0 -105 51.5 -162t154.5 -57q98 0 175.5 59t99.5 155 l6 26h-222l18 82h304z" />
<glyph unicode="H" horiz-adv-x="722" d="M749 729l-155 -729h-94l71 332h-373l-71 -332h-94l155 729h94l-67 -315h373l67 315h94z" />
<glyph unicode="I" horiz-adv-x="278" d="M299 729l-155 -729h-94l155 729h94z" />
<glyph unicode="J" horiz-adv-x="500" d="M416 187q-21 -98 -87 -151.5t-165 -53.5q-78 0 -122 41.5t-44 103.5q0 23 6 48l13 59h94l-13 -61q-4 -16 -4 -34q0 -34 25 -55t65 -21q56 0 91.5 37t53.5 121l108 508h94z" />
<glyph unicode="K" horiz-adv-x="667" d="M763 729l-361 -298l206 -431h-110l-168 376l-154 -127l-53 -249h-94l155 729h94l-79 -373l444 373h120z" />
<glyph unicode="L" d="M484 0h-454l155 729h94l-138 -647h360z" />
<glyph unicode="M" horiz-adv-x="833" d="M866 729l-155 -729h-89l129 605l-334 -605h-97l-77 605l-129 -605h-89l155 729h129l80 -627l346 627h131z" />
<glyph unicode="N" horiz-adv-x="722" d="M751 729l-155 -729h-106l-249 591l-126 -591h-89l155 729h104l250 -598l127 598h89z" />
<glyph unicode="O" horiz-adv-x="778" d="M779 470q0 -127 -53 -237.5t-154.5 -180.5t-229.5 -70q-134 0 -210.5 74.5t-76.5 211.5q0 122 57 232t157.5 178.5t218.5 68.5q136 0 213.5 -73t77.5 -204zM683 452q0 101 -55.5 157.5t-151.5 56.5q-92 0 -167.5 -56t-116.5 -145t-41 -189q0 -101 55.5 -157t148.5 -56 t169.5 56t117.5 144.5t41 188.5z" />
<glyph unicode="P" horiz-adv-x="667" d="M683 568q0 -105 -72 -182t-182 -77h-228l-66 -309h-94l155 729h302q185 0 185 -161zM587 550q0 97 -120 97h-194l-55 -256h194q77 0 126 46t49 113z" />
<glyph unicode="Q" horiz-adv-x="778" d="M684 4l-60 -58l-87 87q-55 -29 -96.5 -40t-99.5 -11q-135 0 -210.5 76t-75.5 211q0 121 55.5 230.5t156 178.5t221.5 69q138 0 214.5 -75.5t76.5 -209.5q0 -108 -45 -207.5t-128 -173.5zM683 452q0 102 -56 158t-151 56q-91 0 -167 -56t-117 -145t-41 -188 q0 -101 55.5 -157.5t153.5 -56.5q54 0 119 29l-62 62l58 56l74 -73q134 129 134 315z" />
<glyph unicode="R" horiz-adv-x="722" d="M634 23l-5 -23h-113q-4 28 -4 47q0 24 3 40.5t21 91.5q8 35 8 60q0 75 -101 75h-239l-67 -314h-94l155 729h336q96 0 141 -37.5t45 -116.5q0 -74 -34 -124.5t-106 -90.5q35 -23 47.5 -43t12.5 -53q0 -28 -21 -138q-6 -32 -6 -50q0 -34 21 -53zM624 558q0 45 -27 67 t-92 22h-230l-54 -251h231q83 0 127.5 45.5t44.5 116.5z" />
<glyph unicode="S" horiz-adv-x="667" d="M620 242q0 -42 -24.5 -91.5t-62.5 -84.5q-90 -84 -252 -84q-113 0 -177 51t-64 141q0 30 9 63h87q-4 -25 -4 -41q0 -68 40 -100.5t125 -32.5q100 0 163.5 43.5t63.5 107.5q0 35 -26.5 59t-86.5 41l-171 49q-50 14 -80.5 51t-30.5 84q0 38 20.5 85.5t51.5 78.5 q82 85 238 85q105 0 165.5 -46.5t60.5 -123.5q0 -19 -8 -56h-88q4 27 4 36q0 109 -152 109q-86 0 -141 -40.5t-55 -101.5q0 -33 21.5 -51t79.5 -35l172 -49q56 -16 89 -56.5t33 -90.5z" />
<glyph unicode="T" horiz-adv-x="611" d="M681 647h-238l-138 -647h-94l138 647h-241l17 82h573z" />
<glyph unicode="U" horiz-adv-x="722" d="M750 729l-108 -507q-23 -109 -112.5 -174.5t-215.5 -65.5q-107 0 -173 50t-66 128q0 30 14 96l101 473h94l-108 -507q-5 -20 -5 -44q0 -52 44.5 -83.5t116.5 -31.5q85 0 142.5 42.5t73.5 116.5l108 507h94z" />
<glyph unicode="V" horiz-adv-x="667" d="M750 729l-408 -729h-100l-107 729h97l83 -617l336 617h99z" />
<glyph unicode="W" horiz-adv-x="944" d="M1034 729l-340 -729h-102l-41 592l-290 -592h-134v729h115v-592l288 592h96l41 -592l263 592h104z" />
<glyph unicode="X" horiz-adv-x="667" d="M600 0h-115l-134 304l-264 -304h-115l339 374l-167 355h113l125 -285l248 285h114l-323 -355z" />
<glyph unicode="Y" horiz-adv-x="667" d="M766 729l-368 -443l-61 -286h-94l61 286l-186 443h112l136 -357l289 357h111z" />
<glyph unicode="Z" horiz-adv-x="611" d="M534 0h-556l18 84l555 563h-406l17 82h525l-18 -84l-556 -563h438z" />
<glyph unicode="[" horiz-adv-x="278" d="M340 657h-102l-170 -798h102l-15 -72h-186l200 942h186z" />
<glyph unicode="\" horiz-adv-x="278" d="M230 -20h-55l-78 749h55z" />
<glyph unicode="]" horiz-adv-x="278" d="M114 -213h-187l15 72h103l170 798h-103l15 72h187z" />
<glyph unicode="^" horiz-adv-x="469" d="M446 329h-69l-58 299l-182 -299h-72l234 380h73z" />
<glyph unicode="_" d="M501 -127l-11 -50h-599l11 50h599z" />
<glyph unicode="`" horiz-adv-x="333" d="M270 581h-60l-117 148h112z" />
<glyph unicode="a" d="M492 0q-51 -9 -53 -9q-39 0 -59 11.5t-20 40.5l1 15q-53 -44 -98.5 -58.5t-101.5 -14.5q-68 0 -106.5 32.5t-38.5 91.5q0 89 81 140q36 23 79.5 33t145.5 20q54 5 75 17t26 42l3 18q2 16 2 19q0 28 -30.5 46t-75.5 18q-108 0 -137 -93h-84q14 83 76.5 126.5t166.5 43.5 q79 0 126.5 -31t47.5 -82q0 -10 -6 -37l-61 -287q-1 -3 -1 -10q0 -29 38 -29q8 0 17 2zM401 258q-43 -15 -146 -29q-80 -11 -115.5 -37t-35.5 -73q0 -62 90 -62q66 0 122.5 34.5t66.5 80.5z" />
<glyph unicode="b" d="M538 343q0 -90 -35 -171t-103 -134t-154 -53q-105 0 -149 97l-18 -82h-75l155 729h84l-58 -275q48 51 84.5 68t91.5 17q76 0 126.5 -56t50.5 -140zM450 324q0 65 -31 101.5t-86 36.5q-79 0 -138 -79.5t-59 -195.5q0 -59 30 -92t82 -33q82 0 142 76t60 186z" />
<glyph unicode="c" horiz-adv-x="500" d="M468 180q-30 -104 -91.5 -149.5t-161.5 -45.5q-86 0 -137 53t-51 136q0 160 84 262.5t220 102.5q77 0 125 -43.5t48 -103.5q0 -1 -0.5 -5t-1 -11t-0.5 -13l-1 -15h-84q1 9 1 22q0 43 -27.5 67.5t-74.5 24.5q-87 0 -144 -83t-57 -194q0 -58 31 -90.5t83 -32.5 q112 0 155 118h84z" />
<glyph unicode="d" d="M600 729l-155 -729h-81l17 80q-22 -42 -76 -68.5t-109 -26.5q-78 0 -125 51t-47 138q0 158 82 261.5t207 103.5q53 0 86 -21t57 -70l60 281h84zM423 327q0 64 -31 99.5t-87 35.5q-81 0 -137 -80t-56 -188q0 -64 31 -98t87 -34q79 0 136 79t57 186z" />
<glyph unicode="e" d="M514 238h-386q-6 -24 -5 -46q0 -63 32.5 -96.5t92.5 -33.5q100 0 154 97h84q-23 -80 -92 -127t-160 -47q-89 0 -144 56t-55 136q0 61 24 134t59 120q37 50 96.5 79t124.5 29q81 0 136 -49.5t55 -121.5q0 -42 -14 -117zM440 310q2 24 2 29q0 56 -31.5 89.5t-84.5 33.5 q-60 0 -110.5 -43t-69.5 -109h294z" />
<glyph unicode="f" horiz-adv-x="278" d="M306 457h-86l-97 -457h-84l97 457h-70l14 67h70l19 89q12 56 51.5 87.5t97.5 31.5q22 0 45 -5l-15 -69q-14 2 -27 2q-32 0 -48 -14.5t-24 -52.5l-15 -69h86z" />
<glyph unicode="g" d="M458 85q-20 -95 -43 -147.5t-61 -88.5q-70 -67 -195 -67q-80 0 -128.5 34.5t-48.5 92.5q0 10 1 18l1 13h84v-14q0 -34 28.5 -53t79.5 -19q80 0 123.5 44t65.5 146l4 20q-76 -79 -172 -79q-77 0 -125 51t-48 133q0 148 84 259t211 111q96 0 139 -93l17 78h76zM419 339 q0 56 -29 89.5t-77 33.5q-86 0 -143.5 -84t-57.5 -193q0 -59 29.5 -93.5t79.5 -34.5q87 0 142.5 83.5t55.5 198.5z" />
<glyph unicode="h" d="M520 376l-80 -376h-84l73 343q6 27 6 39q0 38 -23.5 61.5t-61.5 23.5q-68 0 -118 -48t-67 -130l-61 -289h-84l155 729h84l-57 -270q47 44 89 62t98 18q63 0 99 -33.5t36 -92.5q0 -20 -4 -37z" />
<glyph unicode="i" horiz-adv-x="222" d="M262 707l-22 -103h-104l22 103h104zM103 0h-84l111 524h84z" />
<glyph unicode="j" horiz-adv-x="222" d="M262 707l-22 -103h-104l22 103h104zM80 -109q-14 -62 -52 -85.5t-124 -23.5q-8 0 -19 3l15 71q18 -2 25 -2q38 0 53.5 14t24.5 56l127 600h84z" />
<glyph unicode="k" horiz-adv-x="500" d="M452 0h-96l-114 291l-107 -88l-43 -203h-84l155 729h84l-90 -423l269 218h108l-222 -181z" />
<glyph unicode="l" horiz-adv-x="222" d="M257 729l-155 -729h-84l155 729h84z" />
<glyph unicode="m" horiz-adv-x="833" d="M717 0h-84l72 341q9 34 9 49q0 36 -20.5 56.5t-55.5 20.5q-55 0 -100 -39.5t-57 -98.5l-70 -329h-84l77 361q4 17 4 37q0 31 -22.5 50t-59.5 19q-50 0 -94.5 -40.5t-56.5 -97.5l-70 -329h-84l111 524h76l-13 -65q48 45 87.5 62.5t90.5 17.5q97 0 121 -83q86 83 181 83 q61 0 94 -33.5t33 -77.5q0 -33 -6 -55z" />
<glyph unicode="n" d="M520 376l-80 -376h-84l74 349q6 32 6 37q0 35 -25 58t-62 23q-68 0 -117.5 -48t-66.5 -130l-61 -289h-84l111 524h76l-13 -65q78 80 194 80q62 0 99 -34t37 -91q0 -21 -4 -38z" />
<glyph unicode="o" d="M526 352q0 -158 -85 -262.5t-220 -104.5q-85 0 -137.5 50t-52.5 133q0 100 36 184t106 135.5t161 51.5q88 0 140 -53t52 -134zM438 333q0 61 -31 95t-86 34q-87 0 -144.5 -81.5t-57.5 -192.5q0 -59 31 -92.5t85 -33.5q88 0 145.5 79t57.5 192z" />
<glyph unicode="p" d="M536 344q0 -152 -81.5 -255.5t-208.5 -103.5q-53 0 -86.5 20.5t-57.5 66.5l-61 -285h-84l157 737h81l-18 -84q20 42 75 70.5t110 28.5q80 0 127 -52.5t47 -142.5zM448 324q0 65 -31.5 101.5t-87.5 36.5q-81 0 -138 -82.5t-57 -191.5q0 -59 32.5 -92.5t87.5 -33.5 q83 0 138.5 78t55.5 184z" />
<glyph unicode="q" d="M557 524l-157 -737h-84l60 279q-52 -50 -86.5 -65.5t-89.5 -15.5q-76 0 -127 54.5t-51 137.5q0 91 35 172.5t103.5 135.5t155.5 54q111 0 147 -101l19 86h75zM424 333q0 59 -30 94t-80 35q-84 0 -144 -78t-60 -194q0 -59 32 -93.5t86 -34.5q79 0 137.5 77.5t58.5 193.5z " />
<glyph unicode="r" horiz-adv-x="333" d="M368 451h-10q-159 0 -197 -179l-58 -272h-84l111 524h76l-17 -82q46 53 83.5 75t81.5 22q12 0 32 -3z" />
<glyph unicode="s" horiz-adv-x="500" d="M445 181q0 -89 -67 -142.5t-179 -53.5q-87 0 -136.5 34t-49.5 94q0 23 6 51h89q-2 -20 -2 -25q0 -37 28 -57t80 -20q59 0 101 27t42 69q0 19 -13.5 33.5t-56.5 25.5l-74 19q-77 19 -107.5 45t-30.5 72q0 81 64 133.5t167 52.5q73 0 118.5 -33t45.5 -85q0 -18 -6 -43h-84 q1 8 1 22q0 29 -24 45.5t-68 16.5q-57 0 -91.5 -24t-34.5 -63t85 -60l76 -19q66 -16 93.5 -42.5t27.5 -72.5z" />
<glyph unicode="t" horiz-adv-x="278" d="M220 73l-16 -73q-24 -7 -65 -7t-65 21t-24 58q0 16 3 31l76 354h-71l14 67h71l31 144h84l-31 -144h89l-14 -67h-89l-75 -351q-2 -12 -2 -14q0 -12 10 -19.5t26 -7.5q13 0 48 8z" />
<glyph unicode="u" d="M433 0h-76l13 61q-83 -76 -192 -76q-65 0 -101.5 29t-36.5 80q0 19 3 34l84 396h84l-77 -363q-3 -15 -3 -27q0 -35 24 -56t65 -21q64 0 113 48.5t66 129.5l61 289h84z" />
<glyph unicode="v" horiz-adv-x="500" d="M548 524l-311 -524h-91l-74 524h92l49 -422l244 422h91z" />
<glyph unicode="w" horiz-adv-x="722" d="M770 524l-264 -524h-107v418l-195 -418h-96l-40 524h110v-408l189 408h116v-408l196 408h91z" />
<glyph unicode="x" horiz-adv-x="500" d="M423 0h-94l-90 200l-174 -200h-98l239 267l-118 257h93l88 -192l167 192h97l-233 -257z" />
<glyph unicode="y" horiz-adv-x="500" d="M540 524l-368 -634q-63 -108 -165 -108q-27 0 -49 10l16 75q36 -4 44 -4q28 0 44 10.5t36 41.5l52 81l-68 528h90l46 -407l233 407h89z" />
<glyph unicode="z" horiz-adv-x="500" d="M408 0h-427l18 74l395 378h-294l15 72h392l-18 -75l-392 -377h326z" />
<glyph unicode="{" horiz-adv-x="334" d="M181 -213h-47q-41 0 -63.5 21t-22.5 58q0 27 6 54l35 166q9 41 9 67q0 62 -57 71l15 69q44 7 68 39t38 99l36 166q14 66 50.5 99t85.5 33h47l-14 -65h-16q-37 0 -53.5 -14t-24.5 -53l-39 -181q-22 -109 -108 -157q28 -18 38 -38.5t10 -58.5q0 -32 -6 -61l-39 -181 q-4 -16 -4 -33q0 -34 54 -34h16z" />
<glyph unicode="|" horiz-adv-x="260" d="M164 -213h-68v942h68v-942z" />
<glyph unicode="}" horiz-adv-x="334" d="M274 293l-15 -70q-85 -13 -106 -138l-36 -166q-29 -132 -136 -132h-47l14 65h16q37 0 53.5 14t24.5 53l39 181q13 67 35.5 100.5t72.5 56.5q-48 42 -48 105q0 26 6 54l39 181q4 16 4 33q0 34 -54 34h-16l14 65h47q38 0 62 -22.5t24 -59.5q0 -22 -6 -50l-35 -166 q-9 -45 -9 -72q0 -57 57 -66z" />
<glyph unicode="~" horiz-adv-x="584" d="M544 411q-12 -68 -49 -105.5t-87 -37.5q-40 0 -74 26l-85 63q-21 15 -39 15q-47 0 -71 -79h-52q19 70 54.5 107.5t83.5 37.5q27 0 51 -16l102 -69q26 -17 47 -17q51 0 67 75h52z" />
<glyph unicode="&#xa1;" horiz-adv-x="278" d="M87 -205h-84l74 350l67 211h40l-23 -211zM242 524l-22 -103h-84l22 103h84z" />
<glyph unicode="&#xa2;" d="M499 180q-26 -99 -85.5 -148t-159.5 -55l-21 -97h-40l21 98q-77 8 -122.5 60.5t-45.5 132.5q0 148 78 251t209 116l19 90h40l-19 -90q66 0 114 -43t48 -103q0 -1 -0.5 -5t-1 -11t-0.5 -13l-1 -15h-84q1 9 1 23q0 76 -80 90l-12 2l-87 -410q53 6 87.5 36t57.5 91h84z M231 56l85 404q-80 -15 -131 -96.5t-51 -180.5q0 -53 26 -87t71 -40z" />
<glyph unicode="&#xa3;" d="M493 31q-66 -54 -142 -54q-49 0 -139 35q-31 11 -63 11q-53 0 -118 -37l-37 66q174 115 174 219q0 18 -10 50h-113l12 55h83q-6 18 -13 37t-10 26.5t-5 18t-2 22.5q0 97 86 173t196 76q83 0 134.5 -41.5t51.5 -108.5q0 -28 -9 -82h-88q9 33 9 57q0 45 -31.5 71.5 t-84.5 26.5q-71 0 -119.5 -46t-48.5 -114q-1 -17 3 -30.5t19 -57.5l9 -28h160l-12 -55h-137l1 -11q2 -26 2 -27q0 -34 -18 -73q-18 -41 -41.5 -63.5t-105.5 -85.5q78 39 133 39q27 0 53 -9q63 -21 102 -21q40 0 94 31z" />
<glyph unicode="&#xa4;" d="M596 555l-67 -54q38 -57 19 -150q-19 -88 -82 -151l42 -56l-55 -45l-43 58q-70 -55 -160 -55q-89 0 -138 55l-67 -58l-35 45l66 56q-38 61 -18 151q18 92 81 150l-43 54l58 48l45 -56q70 51 156 51t134 -51l69 56zM475 351q15 71 -24.5 124t-110.5 53t-132.5 -53 t-76.5 -124q-16 -73 23.5 -126t110.5 -53t132.5 53t77.5 126z" />
<glyph unicode="&#xa5;" d="M646 709l-277 -355h154l-11 -51h-172l-17 -77h172l-10 -51h-173l-37 -175h-88l37 175h-174l11 51h174l17 77h-175l11 51h154l-130 355h85l116 -322l248 322h85z" />
<glyph unicode="&#xa6;" horiz-adv-x="260" d="M164 352h-68v377h68v-377zM164 -213h-68v377h68v-377z" />
<glyph unicode="&#xa7;" d="M509 267q0 -65 -39.5 -119.5t-107.5 -76.5q30 -41 30 -87q0 -73 -64 -135t-153 -62q-73 0 -117.5 38t-44.5 100q0 24 11 61h85q-8 -28 -8 -45q0 -34 24.5 -55.5t62.5 -21.5q46 0 79 30.5t33 71.5q0 39 -38 72l-145 124q-63 53 -63 112q0 68 48 123q17 19 33.5 30.5 t61.5 35.5q-26 33 -26 77q0 74 65.5 131.5t149.5 57.5q67 0 110 -38t43 -97q0 -11 -1.5 -17.5t-5 -20t-7.5 -32.5h-84q10 29 10 51q0 35 -22.5 56t-60.5 21q-42 0 -73.5 -30t-31.5 -69q0 -17 8.5 -29.5t33.5 -32.5l127 -101q50 -40 63.5 -62.5t13.5 -60.5zM421 231 q0 48 -53 91l-131 106q-53 -30 -74 -56.5t-21 -62.5q0 -24 9 -40.5t35 -39.5l138 -121q97 50 97 123z" />
<glyph unicode="&#xa8;" horiz-adv-x="333" d="M209 604h-91l22 102h91zM371 604h-91l22 102h91z" />
<glyph unicode="&#xa9;" horiz-adv-x="737" d="M718 334q0 -144 -102.5 -246t-246.5 -102t-246 102t-102 246t102 246.5t246 102.5t246.5 -102.5t102.5 -246.5zM675 334q0 127 -89.5 216.5t-216.5 89.5t-216 -89.5t-89 -216.5t89 -216t216 -89t216.5 89t89.5 216zM565 404h-64q-8 88 -92 88q-77 0 -128 -70 q-46 -65 -44 -140q2 -47 29.5 -76.5t71.5 -29.5q55 0 86.5 25t58.5 84h66q-37 -85 -88 -122.5t-131 -37.5q-72 0 -113.5 39.5t-43.5 105.5q-1 51 19 104t54 91q69 78 174 78q65 0 103 -35.5t42 -103.5z" />
<glyph unicode="&#xaa;" horiz-adv-x="370" d="M356 354l-11 -51h-288l11 51h288zM373 405l-10 -2q-17 -4 -26 -4q-42 0 -47 43q-46 -43 -109 -43q-46 0 -70.5 21t-24.5 59q0 58 50 89q35 22 134 32q33 4 43 9.5t15 23.5l2 8q2 10 2 15q0 35 -62 35q-63 0 -80 -57h-56q18 64 52 86t101 22q48 0 76 -17.5t28 -48.5 q0 -15 -1 -18l-41 -190l-1 -7q0 -5 5 -9.5t12 -4.5l9 1l8 1zM303 515l10 51q-20 -7 -51 -11q-72 -10 -94 -25.5t-22 -43.5q0 -37 53 -37q34 0 66.5 21t37.5 45z" />
<glyph unicode="&#xab;" d="M445 188l-18 -82l-125 121l19 89l177 122l-18 -83l-121 -84zM240 188l-18 -82l-125 121l19 89l177 122l-18 -83l-121 -84z" />
<glyph unicode="&#xac;" horiz-adv-x="584" d="M516 159h-68v148h-380v68h448v-216z" />
<glyph unicode="&#xad;" horiz-adv-x="333" d="M286 240h-239l15 72h239z" />
<glyph unicode="&#xae;" horiz-adv-x="737" d="M718 334q0 -144 -102.5 -246t-246.5 -102t-246 102t-102 246t102 246.5t246 102.5t246.5 -102.5t102.5 -246.5zM675 334q0 127 -89.5 216.5t-216.5 89.5t-216 -89.5t-89 -216.5t89 -216t216 -89t216.5 89t89.5 216zM570 447q1 -73 -76 -115q32 -20 32 -51q0 -17 -11 -75 q-3 -16 -3 -26q2 -18 14 -27l-4 -18h-73q-3 19 -3 28q-1 18 12 72q4 15 4 31q0 37 -57 37h-137l-36 -168h-63l85 398h201q114 0 115 -86zM506 437q-1 22 -16.5 33t-51.5 11h-132l-27 -126h132q47 0 71.5 23t23.5 59z" />
<glyph unicode="&#xaf;" horiz-adv-x="333" d="M399 690l-15 -69h-275l15 69h275z" />
<glyph unicode="&#xb0;" horiz-adv-x="400" d="M414 557q-13 -62 -64 -104t-113 -42t-95 42t-20 104q14 62 64.5 104t112.5 42t95 -42t20 -104zM366 557q9 40 -14 71.5t-62 31.5t-75 -31.5t-45 -71.5q-8 -40 14.5 -71.5t61.5 -31.5t75.5 31.5t44.5 71.5z" />
<glyph unicode="&#xb1;" horiz-adv-x="584" d="M516 284h-190v-155h-68v155h-190v68h190v190h68v-190h190v-68zM516 0h-448v68h448v-68z" />
<glyph unicode="&#xb2;" horiz-adv-x="333" d="M376 598q-15 -70 -109 -113l-61 -29q-32 -14 -49 -29.5t-30 -40.5h201l-11 -51h-267q17 64 46.5 97.5t99.5 66.5l58 28q57 27 66 69q6 28 -11 47t-49 19q-72 0 -96 -87h-54q32 134 161 134q57 0 86.5 -31t18.5 -80z" />
<glyph unicode="&#xb3;" horiz-adv-x="333" d="M347 441q-12 -54 -55.5 -86t-105.5 -32q-64 0 -92 32.5t-15 92.5h55q-7 -41 8 -60t55 -19q37 0 62.5 19t32.5 53q8 38 -14.5 50.5t-81.5 12.5l10 45q56 0 78.5 11t29.5 42q6 28 -8.5 44t-45.5 16q-38 0 -59 -18t-30 -60h-55q30 125 154 125q56 0 83 -28.5t16 -77.5 q-11 -52 -66 -74q57 -22 44 -88z" />
<glyph unicode="&#xb4;" horiz-adv-x="333" d="M450 729l-180 -148h-60l128 148h112z" />
<glyph unicode="&#xb5;" d="M504 49l-14 -63q-52 -9 -54 -9q-40 0 -57.5 14.5t-17.5 49.5q0 7 3 19q-80 -83 -183 -83q-52 0 -81 29l-48 -226h-84l158 744h84l-77 -364q-3 -15 -3 -30q0 -37 23 -58.5t63 -21.5q64 0 113.5 48.5t66.5 128.5l63 297h84l-93 -436q-1 -3 -1 -11q0 -31 38 -31q5 0 17 3z " />
<glyph unicode="&#xb6;" horiz-adv-x="537" d="M627 729l-14 -64h-56l-179 -843h-64l179 843h-83l-179 -843h-64l93 437q-77 2 -121 49.5t-44 127.5q0 114 86 203.5t196 89.5h250z" />
<glyph unicode="&#xb7;" horiz-adv-x="278" d="M191 250q0 -22 -15 -37t-37 -15t-37 15t-15 37t15 37t37 15t37 -15t15 -37z" />
<glyph unicode="&#xb8;" horiz-adv-x="333" d="M214 -121q0 -51 -40.5 -80t-104.5 -29q-51 0 -118 34l28 38q57 -29 94 -29q28 0 45.5 15.5t17.5 39.5q0 17 -9 27.5t-22 10.5q-14 0 -27 -4l-23 6l51 97h51l-31 -59h21q27 0 47 -20.5t20 -46.5z" />
<glyph unicode="&#xb9;" horiz-adv-x="333" d="M232 335h-54l55 260h-87l9 41l13 1q47 3 66.5 16.5t40.5 55.5h37z" />
<glyph unicode="&#xba;" horiz-adv-x="365" d="M338 354l-11 -51h-263l11 51h263zM402 627q0 -96 -53 -162t-137 -66q-50 0 -81.5 30.5t-31.5 79.5q0 101 52 167t135 66q55 0 85.5 -31.5t30.5 -83.5zM342 617q0 34 -17.5 53.5t-47.5 19.5q-50 0 -84 -47.5t-34 -117.5q0 -35 17.5 -54.5t49.5 -19.5q49 0 82.5 48 t33.5 118z" />
<glyph unicode="&#xbb;" d="M468 317l-19 -89l-179 -122l18 83l123 84l-88 83l18 82zM269 317l-19 -89l-179 -122l18 83l123 84l-88 83l18 82z" />
<glyph unicode="&#xbc;" horiz-adv-x="834" d="M243 335h-54l55 260h-87l9 41l13 1q47 3 66.5 16.5t40.5 55.5h37zM782 709l-608 -734h-58l608 734h58zM736 88h-59l-19 -88h-54l19 88h-166l11 52l229 234h40l-50 -239h59zM633 135l31 149l-145 -149h114z" />
<glyph unicode="&#xbd;" horiz-adv-x="834" d="M243 335h-54l55 260h-87l9 41l13 1q47 3 66.5 16.5t40.5 55.5h37zM738 709l-608 -734h-58l608 734h58zM769 263q-15 -70 -109 -113l-61 -29q-32 -14 -49 -29.5t-30 -40.5h201l-11 -51h-267q16 64 46 97.5t100 67.5l57 27q58 27 66 69q7 28 -10.5 47t-49.5 19 q-71 0 -95 -87h-55q32 134 161 134q57 0 86.5 -31t19.5 -80z" />
<glyph unicode="&#xbe;" horiz-adv-x="834" d="M377 441q-12 -54 -55.5 -86t-105.5 -32q-64 0 -92 32.5t-15 92.5h55q-7 -41 8 -60t55 -19q37 0 62.5 19t32.5 53q8 38 -14.5 50.5t-81.5 12.5l10 45q56 0 78.5 11t29.5 42q6 28 -8.5 44t-45.5 16q-38 0 -59 -18t-30 -60h-55q30 125 154 125q56 0 83 -28.5t16 -77.5 q-11 -52 -66 -74q57 -22 44 -88zM802 709l-608 -734h-58l608 734h58zM726 88h-59l-19 -88h-54l19 88h-166l11 52l229 234h40l-50 -239h59zM623 135l31 149l-145 -149h114z" />
<glyph unicode="&#xbf;" d="M439 17q-47 -234 -265 -234q-85 0 -133 43t-48 108q0 58 34 110.5t111 109.5q56 42 75 64.5t29 59.5l10 47h90l-12 -55q-10 -45 -32 -71.5t-104 -91.5q-58 -46 -81.5 -82t-23.5 -79q0 -38 30 -62t77 -24q66 0 103.5 37.5t54.5 119.5h85zM384 524l-22 -103h-90l22 103h90z " />
<glyph unicode="&#xc0;" horiz-adv-x="667" d="M603 0h-102l-27 219h-285l-123 -219h-99l415 729h120zM464 297l-40 333l-191 -333h231zM489 783h-72l-159 133h134z" />
<glyph unicode="&#xc1;" horiz-adv-x="667" d="M603 0h-102l-27 219h-285l-123 -219h-99l415 729h120zM464 297l-40 333l-191 -333h231zM705 916l-216 -133h-72l154 133h134z" />
<glyph unicode="&#xc2;" horiz-adv-x="667" d="M603 0h-102l-27 219h-285l-123 -219h-99l415 729h120zM464 297l-40 333l-191 -333h231zM625 783h-75l-67 89l-125 -89h-77l154 135h114z" />
<glyph unicode="&#xc3;" horiz-adv-x="667" d="M603 0h-102l-27 219h-285l-123 -219h-99l415 729h120zM464 297l-40 333l-191 -333h231zM631 904q-16 -49 -45 -78t-63 -29q-27 0 -103 26q-16 6 -27 6q-17 0 -26 -6.5t-24 -26.5h-53q19 55 43 79t61 24q7 0 64.5 -16t71.5 -16q15 0 24.5 7.5t23.5 29.5h53z" />
<glyph unicode="&#xc4;" horiz-adv-x="667" d="M421 799h-91l22 102h91zM583 799h-91l22 102h91zM603 0h-102l-27 219h-285l-123 -219h-99l415 729h120zM464 297l-40 333l-191 -333h231z" />
<glyph unicode="&#xc5;" horiz-adv-x="667" d="M603 0h-102l-27 219h-285l-123 -219h-99l415 729h120zM464 297l-40 333l-191 -333h231zM570 888q0 -47 -36.5 -83t-83.5 -36q-33 0 -55.5 22.5t-22.5 54.5q0 43 37 79t82 36q34 0 56.5 -21t22.5 -52zM520 874q0 17 -10.5 28t-26.5 11q-23 0 -41.5 -18t-18.5 -39 q0 -17 10.5 -28t27.5 -11q22 0 40.5 18t18.5 39z" />
<glyph unicode="&#xc6;" horiz-adv-x="1000" d="M900 0h-482l45 214h-269l-130 -214h-103l454 729h622l-17 -82h-371l-49 -233h351l-18 -82h-351l-53 -250h388zM481 295l74 352h-100l-212 -352h238z" />
<glyph unicode="&#xc7;" horiz-adv-x="722" d="M685 266q-61 -144 -140.5 -210.5t-199.5 -72.5l-19 -37h21q27 0 47 -20.5t20 -46.5q0 -51 -40.5 -80t-104.5 -29q-51 0 -118 34l28 38q57 -29 94 -29q28 0 45.5 15.5t17.5 39.5q0 17 -9 27.5t-22 10.5q-14 0 -27 -4l-23 6l39 75q-108 7 -169.5 78.5t-61.5 185.5 q0 94 34.5 191t93.5 168q117 141 292 141q106 0 168.5 -62t68.5 -182h-96q-12 163 -158 163q-136 0 -226 -133q-81 -121 -81 -268q0 -91 47.5 -146.5t125.5 -55.5q94 0 150 46.5t105 156.5h98z" />
<glyph unicode="&#xc8;" horiz-adv-x="667" d="M563 0h-523l155 729h506l-17 -82h-412l-50 -233h396l-18 -82h-395l-54 -250h429zM495 783h-72l-159 133h134z" />
<glyph unicode="&#xc9;" horiz-adv-x="667" d="M563 0h-523l155 729h506l-17 -82h-412l-50 -233h396l-18 -82h-395l-54 -250h429zM711 916l-216 -133h-72l154 133h134z" />
<glyph unicode="&#xca;" horiz-adv-x="667" d="M563 0h-523l155 729h506l-17 -82h-412l-50 -233h396l-18 -82h-395l-54 -250h429zM631 783h-75l-67 89l-125 -89h-77l154 135h114z" />
<glyph unicode="&#xcb;" horiz-adv-x="667" d="M427 799h-91l22 102h91zM589 799h-91l22 102h91zM563 0h-523l155 729h506l-17 -82h-412l-50 -233h396l-18 -82h-395l-54 -250h429z" />
<glyph unicode="&#xcc;" horiz-adv-x="278" d="M299 729l-155 -729h-94l155 729h94zM310 783h-72l-159 133h134z" />
<glyph unicode="&#xcd;" horiz-adv-x="278" d="M299 729l-155 -729h-94l155 729h94zM504 916l-216 -133h-72l154 133h134z" />
<glyph unicode="&#xce;" horiz-adv-x="278" d="M299 729l-155 -729h-94l155 729h94zM435 783h-75l-67 89l-125 -89h-77l154 135h114z" />
<glyph unicode="&#xcf;" horiz-adv-x="278" d="M231 799h-91l22 102h91zM393 799h-91l22 102h91zM299 729l-155 -729h-94l155 729h94z" />
<glyph unicode="&#xd0;" horiz-adv-x="722" d="M709 488q0 -206 -112.5 -347t-275.5 -141h-282l72 341h-68l13 67h70l68 321h282q109 0 171 -67.5t62 -173.5zM613 480q0 79 -45.5 123t-125.5 44h-171l-51 -239h166l-14 -67h-167l-55 -259h172q129 0 210 112.5t81 285.5z" />
<glyph unicode="&#xd1;" horiz-adv-x="722" d="M655 904q-16 -49 -45 -78t-63 -29q-27 0 -103 26q-17 6 -27 6q-17 0 -26 -6.5t-24 -26.5h-53q19 55 43 79t61 24q7 0 64.5 -16t71.5 -16q15 0 24.5 7.5t23.5 29.5h53zM751 729l-155 -729h-106l-249 591l-126 -591h-89l155 729h104l250 -598l127 598h89z" />
<glyph unicode="&#xd2;" horiz-adv-x="778" d="M779 470q0 -127 -53 -237.5t-154.5 -180.5t-229.5 -70q-134 0 -210.5 74.5t-76.5 211.5q0 122 57 232t157.5 178.5t218.5 68.5q136 0 213.5 -73t77.5 -204zM683 452q0 101 -55.5 157.5t-151.5 56.5q-92 0 -167.5 -56t-116.5 -145t-41 -189q0 -101 55.5 -157t148.5 -56 t169.5 56t117.5 144.5t41 188.5zM532 783h-72l-159 133h134z" />
<glyph unicode="&#xd3;" horiz-adv-x="778" d="M779 470q0 -127 -53 -237.5t-154.5 -180.5t-229.5 -70q-134 0 -210.5 74.5t-76.5 211.5q0 122 57 232t157.5 178.5t218.5 68.5q136 0 213.5 -73t77.5 -204zM683 452q0 101 -55.5 157.5t-151.5 56.5q-92 0 -167.5 -56t-116.5 -145t-41 -189q0 -101 55.5 -157t148.5 -56 t169.5 56t117.5 144.5t41 188.5zM747 916l-216 -133h-72l154 133h134z" />
<glyph unicode="&#xd4;" horiz-adv-x="778" d="M779 470q0 -127 -53 -237.5t-154.5 -180.5t-229.5 -70q-134 0 -210.5 74.5t-76.5 211.5q0 122 57 232t157.5 178.5t218.5 68.5q136 0 213.5 -73t77.5 -204zM683 452q0 101 -55.5 157.5t-151.5 56.5q-92 0 -167.5 -56t-116.5 -145t-41 -189q0 -101 55.5 -157t148.5 -56 t169.5 56t117.5 144.5t41 188.5zM667 783h-75l-67 89l-125 -89h-77l154 135h114z" />
<glyph unicode="&#xd5;" horiz-adv-x="778" d="M779 470q0 -127 -53 -237.5t-154.5 -180.5t-229.5 -70q-134 0 -210.5 74.5t-76.5 211.5q0 122 57 232t157.5 178.5t218.5 68.5q136 0 213.5 -73t77.5 -204zM683 452q0 101 -55.5 157.5t-151.5 56.5q-92 0 -167.5 -56t-116.5 -145t-41 -189q0 -101 55.5 -157t148.5 -56 t169.5 56t117.5 144.5t41 188.5zM674 904q-16 -49 -45 -78t-63 -29q-27 0 -103 26q-16 6 -27 6q-17 0 -26 -6.5t-24 -26.5h-53q19 55 43 79t61 24q7 0 64.5 -16t71.5 -16q15 0 24.5 7.5t23.5 29.5h53z" />
<glyph unicode="&#xd6;" horiz-adv-x="778" d="M464 799h-91l22 102h91zM626 799h-91l22 102h91zM779 470q0 -127 -53 -237.5t-154.5 -180.5t-229.5 -70q-134 0 -210.5 74.5t-76.5 211.5q0 122 57 232t157.5 178.5t218.5 68.5q136 0 213.5 -73t77.5 -204zM683 452q0 101 -55.5 157.5t-151.5 56.5q-92 0 -167.5 -56 t-116.5 -145t-41 -189q0 -101 55.5 -157t148.5 -56t169.5 56t117.5 144.5t41 188.5z" />
<glyph unicode="&#xd7;" horiz-adv-x="584" d="M474 116l-48 -48l-134 134l-134 -134l-48 48l134 134l-134 134l48 48l134 -134l134 134l48 -48l-134 -134z" />
<glyph unicode="&#xd8;" horiz-adv-x="778" d="M842 708l-99 -87q36 -61 36 -151q0 -127 -53 -237.5t-154.5 -180.5t-229.5 -70q-146 0 -222 87l-96 -85l-32 37l100 88q-37 66 -37 159q0 122 57 232t157.5 178.5t218.5 68.5q149 0 227 -86l94 84zM683 452q0 56 -18 100l-471 -418q56 -71 161 -71q93 0 169.5 56 t117.5 144.5t41 188.5zM640 595q-54 71 -164 71q-92 0 -167.5 -56t-116.5 -145t-41 -189q0 -56 18 -98z" />
<glyph unicode="&#xd9;" horiz-adv-x="722" d="M750 729l-108 -507q-23 -109 -112.5 -174.5t-215.5 -65.5q-107 0 -173 50t-66 128q0 30 14 96l101 473h94l-108 -507q-5 -20 -5 -44q0 -52 44.5 -83.5t116.5 -31.5q85 0 142.5 42.5t73.5 116.5l108 507h94zM517 783h-72l-159 133h134z" />
<glyph unicode="&#xda;" horiz-adv-x="722" d="M750 729l-108 -507q-23 -109 -112.5 -174.5t-215.5 -65.5q-107 0 -173 50t-66 128q0 30 14 96l101 473h94l-108 -507q-5 -20 -5 -44q0 -52 44.5 -83.5t116.5 -31.5q85 0 142.5 42.5t73.5 116.5l108 507h94zM733 916l-216 -133h-72l154 133h134z" />
<glyph unicode="&#xdb;" horiz-adv-x="722" d="M750 729l-108 -507q-23 -109 -112.5 -174.5t-215.5 -65.5q-107 0 -173 50t-66 128q0 30 14 96l101 473h94l-108 -507q-5 -20 -5 -44q0 -52 44.5 -83.5t116.5 -31.5q85 0 142.5 42.5t73.5 116.5l108 507h94zM653 783h-75l-67 89l-125 -89h-77l154 135h114z" />
<glyph unicode="&#xdc;" horiz-adv-x="722" d="M449 799h-91l22 102h91zM611 799h-91l22 102h91zM750 729l-108 -507q-23 -109 -112.5 -174.5t-215.5 -65.5q-107 0 -173 50t-66 128q0 30 14 96l101 473h94l-108 -507q-5 -20 -5 -44q0 -52 44.5 -83.5t116.5 -31.5q85 0 142.5 42.5t73.5 116.5l108 507h94z" />
<glyph unicode="&#xdd;" horiz-adv-x="667" d="M766 729l-368 -443l-61 -286h-94l61 286l-186 443h112l136 -357l289 357h111zM708 916l-216 -133h-72l154 133h134z" />
<glyph unicode="&#xde;" horiz-adv-x="667" d="M658 450q0 -105 -72 -182t-182 -77h-228l-41 -191h-94l155 729h94l-25 -118h208q185 0 185 -161zM562 432q0 97 -120 97h-195l-54 -256h194q77 0 126 46t49 113z" />
<glyph unicode="&#xdf;" horiz-adv-x="611" d="M562 219q-23 -110 -97.5 -174.5t-177.5 -64.5q-47 0 -83 4l18 83q40 -5 75 -5q73 0 127.5 55.5t54.5 135.5q0 54 -40.5 75t-122.5 21l17 82q64 0 118 36.5t54 93.5q0 41 -36 65.5t-88 24.5q-57 0 -105.5 -32t-58.5 -81l-114 -538h-83l114 538q17 82 93 136.5t168 54.5 q84 0 141.5 -41.5t57.5 -109.5q0 -57 -37.5 -107t-95.5 -70q49 -14 77 -52.5t28 -90.5q0 -22 -4 -39z" />
<glyph unicode="&#xe0;" d="M492 0q-51 -9 -53 -9q-39 0 -59 11.5t-20 40.5l1 15q-53 -44 -98.5 -58.5t-101.5 -14.5q-68 0 -106.5 32.5t-38.5 91.5q0 89 81 140q36 23 79.5 33t145.5 20q54 5 75 17t26 42l3 18q2 16 2 19q0 28 -30.5 46t-75.5 18q-108 0 -137 -93h-84q14 83 76.5 126.5t166.5 43.5 q79 0 126.5 -31t47.5 -82q0 -10 -6 -37l-61 -287q-1 -3 -1 -10q0 -29 38 -29q8 0 17 2zM401 258q-43 -15 -146 -29q-80 -11 -115.5 -37t-35.5 -73q0 -62 90 -62q66 0 122.5 34.5t66.5 80.5zM383 581h-60l-117 148h112z" />
<glyph unicode="&#xe1;" d="M562 729l-180 -148h-60l128 148h112zM492 0q-51 -9 -53 -9q-39 0 -59 11.5t-20 40.5l1 15q-53 -44 -98.5 -58.5t-101.5 -14.5q-68 0 -106.5 32.5t-38.5 91.5q0 89 81 140q36 23 79.5 33t145.5 20q54 5 75 17t26 42l3 18q2 16 2 19q0 28 -30.5 46t-75.5 18 q-108 0 -137 -93h-84q14 83 76.5 126.5t166.5 43.5q79 0 126.5 -31t47.5 -82q0 -10 -6 -37l-61 -287q-1 -3 -1 -10q0 -29 38 -29q8 0 17 2zM401 258q-43 -15 -146 -29q-80 -11 -115.5 -37t-35.5 -73q0 -62 90 -62q66 0 122.5 34.5t66.5 80.5z" />
<glyph unicode="&#xe2;" d="M495 580h-63l-56 99l-104 -99h-64l128 150h95zM492 0q-51 -9 -53 -9q-39 0 -59 11.5t-20 40.5l1 15q-53 -44 -98.5 -58.5t-101.5 -14.5q-68 0 -106.5 32.5t-38.5 91.5q0 89 81 140q36 23 79.5 33t145.5 20q54 5 75 17t26 42l3 18q2 16 2 19q0 28 -30.5 46t-75.5 18 q-108 0 -137 -93h-84q14 83 76.5 126.5t166.5 43.5q79 0 126.5 -31t47.5 -82q0 -10 -6 -37l-61 -287q-1 -3 -1 -10q0 -29 38 -29q8 0 17 2zM401 258q-43 -15 -146 -29q-80 -11 -115.5 -37t-35.5 -73q0 -62 90 -62q66 0 122.5 34.5t66.5 80.5z" />
<glyph unicode="&#xe3;" d="M492 0q-51 -9 -53 -9q-39 0 -59 11.5t-20 40.5l1 15q-53 -44 -98.5 -58.5t-101.5 -14.5q-68 0 -106.5 32.5t-38.5 91.5q0 89 81 140q36 23 79.5 33t145.5 20q54 5 75 17t26 42l3 18q2 16 2 19q0 28 -30.5 46t-75.5 18q-108 0 -137 -93h-84q14 83 76.5 126.5t166.5 43.5 q79 0 126.5 -31t47.5 -82q0 -10 -6 -37l-61 -287q-1 -3 -1 -10q0 -29 38 -29q8 0 17 2zM401 258q-43 -15 -146 -29q-80 -11 -115.5 -37t-35.5 -73q0 -62 90 -62q66 0 122.5 34.5t66.5 80.5zM531 709q-16 -49 -45 -78t-63 -29q-27 0 -103 26q-16 6 -27 6q-17 0 -26 -6.5 t-24 -26.5h-53q19 55 43 79t61 24q7 0 64.5 -16t71.5 -16q15 0 24.5 7.5t23.5 29.5h53z" />
<glyph unicode="&#xe4;" d="M321 604h-91l22 102h91zM483 604h-91l22 102h91zM492 0q-51 -9 -53 -9q-39 0 -59 11.5t-20 40.5l1 15q-53 -44 -98.5 -58.5t-101.5 -14.5q-68 0 -106.5 32.5t-38.5 91.5q0 89 81 140q36 23 79.5 33t145.5 20q54 5 75 17t26 42l3 18q2 16 2 19q0 28 -30.5 46t-75.5 18 q-108 0 -137 -93h-84q14 83 76.5 126.5t166.5 43.5q79 0 126.5 -31t47.5 -82q0 -10 -6 -37l-61 -287q-1 -3 -1 -10q0 -29 38 -29q8 0 17 2zM401 258q-43 -15 -146 -29q-80 -11 -115.5 -37t-35.5 -73q0 -62 90 -62q66 0 122.5 34.5t66.5 80.5z" />
<glyph unicode="&#xe5;" d="M492 0q-51 -9 -53 -9q-39 0 -59 11.5t-20 40.5l1 15q-53 -44 -98.5 -58.5t-101.5 -14.5q-68 0 -106.5 32.5t-38.5 91.5q0 89 81 140q36 23 79.5 33t145.5 20q54 5 75 17t26 42l3 18q2 16 2 19q0 28 -30.5 46t-75.5 18q-108 0 -137 -93h-84q14 83 76.5 126.5t166.5 43.5 q79 0 126.5 -31t47.5 -82q0 -10 -6 -37l-61 -287q-1 -3 -1 -10q0 -29 38 -29q8 0 17 2zM401 258q-43 -15 -146 -29q-80 -11 -115.5 -37t-35.5 -73q0 -62 90 -62q66 0 122.5 34.5t66.5 80.5zM467 678q0 -47 -36.5 -83t-83.5 -36q-33 0 -55.5 22.5t-22.5 54.5q0 43 37 79 t82 36q34 0 56.5 -21t22.5 -52zM417 664q0 17 -10.5 28t-26.5 11q-23 0 -41.5 -18t-18.5 -39q0 -17 10.5 -28t27.5 -11q22 0 40.5 18t18.5 39z" />
<glyph unicode="&#xe6;" horiz-adv-x="889" d="M848 234h-386q-5 -22 -5 -53v-18q2 -37 36.5 -69t90.5 -32q99 0 153 97h84q-23 -76 -93 -125t-160 -49q-117 0 -174 102q-105 -102 -241 -102q-66 0 -105 31t-39 89q0 43 22 81.5t60 62.5q37 23 79.5 32.5t142.5 18.5q53 5 73 17t27 44l5 25q2 14 2 19q0 26 -28 41.5 t-76 15.5q-59 0 -92 -22t-49 -71h-84q21 77 53 109q63 61 193 61q55 0 101 -18.5t58 -46.5q73 65 182 65q76 0 131.5 -50t55.5 -119q0 -44 -14 -119zM391 257q-43 -15 -142 -28q-81 -11 -116 -37t-35 -73q0 -62 91 -62q63 0 118.5 35t65.5 80zM774 306q3 22 3 33 q0 56 -31 89.5t-84 33.5q-62 0 -110.5 -41.5t-71.5 -114.5h294z" />
<glyph unicode="&#xe7;" horiz-adv-x="500" d="M468 180q-29 -98 -85.5 -144t-145.5 -50l-21 -40h21q27 0 47 -20.5t20 -46.5q0 -51 -40.5 -80t-104.5 -29q-51 0 -118 34l28 38q57 -29 94 -29q28 0 45.5 15.5t17.5 39.5q0 17 -9 27.5t-22 10.5q-14 0 -27 -4l-23 6l41 79q-74 9 -116.5 60t-42.5 127q0 160 84 262.5 t220 102.5q77 0 125 -43.5t48 -103.5q0 -1 -0.5 -5t-1 -11t-0.5 -13l-1 -15h-84q1 9 1 22q0 43 -27.5 67.5t-74.5 24.5q-87 0 -144 -83t-57 -194q0 -58 31 -90.5t83 -32.5q112 0 155 118h84z" />
<glyph unicode="&#xe8;" d="M514 238h-386q-6 -24 -5 -46q0 -63 32.5 -96.5t92.5 -33.5q100 0 154 97h84q-23 -80 -92 -127t-160 -47q-89 0 -144 56t-55 136q0 61 24 134t59 120q37 50 96.5 79t124.5 29q81 0 136 -49.5t55 -121.5q0 -42 -14 -117zM440 310q2 24 2 29q0 56 -31.5 89.5t-84.5 33.5 q-60 0 -110.5 -43t-69.5 -109h294zM382 581h-60l-117 148h112z" />
<glyph unicode="&#xe9;" d="M561 729l-180 -148h-60l128 148h112zM514 238h-386q-6 -24 -5 -46q0 -63 32.5 -96.5t92.5 -33.5q100 0 154 97h84q-23 -80 -92 -127t-160 -47q-89 0 -144 56t-55 136q0 61 24 134t59 120q37 50 96.5 79t124.5 29q81 0 136 -49.5t55 -121.5q0 -42 -14 -117zM440 310 q2 24 2 29q0 56 -31.5 89.5t-84.5 33.5q-60 0 -110.5 -43t-69.5 -109h294z" />
<glyph unicode="&#xea;" d="M494 580h-63l-56 99l-104 -99h-64l128 150h95zM514 238h-386q-6 -24 -5 -46q0 -63 32.5 -96.5t92.5 -33.5q100 0 154 97h84q-23 -80 -92 -127t-160 -47q-89 0 -144 56t-55 136q0 61 24 134t59 120q37 50 96.5 79t124.5 29q81 0 136 -49.5t55 -121.5q0 -42 -14 -117z M440 310q2 24 2 29q0 56 -31.5 89.5t-84.5 33.5q-60 0 -110.5 -43t-69.5 -109h294z" />
<glyph unicode="&#xeb;" d="M320 604h-91l22 102h91zM482 604h-91l22 102h91zM514 238h-386q-6 -24 -5 -46q0 -63 32.5 -96.5t92.5 -33.5q100 0 154 97h84q-23 -80 -92 -127t-160 -47q-89 0 -144 56t-55 136q0 61 24 134t59 120q37 50 96.5 79t124.5 29q81 0 136 -49.5t55 -121.5q0 -42 -14 -117z M440 310q2 24 2 29q0 56 -31.5 89.5t-84.5 33.5q-60 0 -110.5 -43t-69.5 -109h294z" />
<glyph unicode="&#xec;" horiz-adv-x="278" d="M255 581h-60l-117 148h112zM131 0h-84l111 524h84z" />
<glyph unicode="&#xed;" horiz-adv-x="278" d="M411 729l-180 -148h-60l128 148h112zM131 0h-84l111 524h84z" />
<glyph unicode="&#xee;" horiz-adv-x="278" d="M355 580h-63l-56 99l-104 -99h-64l128 150h95zM131 0h-84l111 524h84z" />
<glyph unicode="&#xef;" horiz-adv-x="278" d="M181 604h-91l22 102h91zM343 604h-91l22 102h91zM131 0h-84l111 524h84z" />
<glyph unicode="&#xf0;" d="M526 347q0 -152 -85 -257t-216 -105q-89 0 -141 52.5t-52 134.5q-1 92 32.5 174t101 135t153.5 53q32 0 66 -17q-38 50 -84 92l-100 -45l-32 39l89 41q-11 10 -17 14.5t-9.5 5.5t-15.5 10l-33 24l42 45l22 -14q34 -20 80 -53l99 43l39 -38l-95 -41q156 -134 156 -293z M438 333q0 61 -31 95t-86 34q-87 0 -144 -79.5t-57 -190.5q0 -60 31 -95t84 -35q88 0 145.5 79t57.5 192z" />
<glyph unicode="&#xf1;" d="M530 709q-16 -49 -45 -78t-63 -29q-27 0 -103 26q-17 6 -27 6q-17 0 -26 -6.5t-24 -26.5h-53q19 55 43 79t61 24q7 0 64.5 -16t71.5 -16q15 0 24.5 7.5t23.5 29.5h53zM520 376l-80 -376h-84l74 349q6 32 6 37q0 35 -25 58t-62 23q-68 0 -117.5 -48t-66.5 -130l-61 -289 h-84l111 524h76l-13 -65q78 80 194 80q62 0 99 -34t37 -91q0 -21 -4 -38z" />
<glyph unicode="&#xf2;" d="M526 352q0 -158 -85 -262.5t-220 -104.5q-85 0 -137.5 50t-52.5 133q0 100 36 184t106 135.5t161 51.5q88 0 140 -53t52 -134zM438 333q0 61 -31 95t-86 34q-87 0 -144.5 -81.5t-57.5 -192.5q0 -59 31 -92.5t85 -33.5q88 0 145.5 79t57.5 192zM373 581h-60l-117 148h112z " />
<glyph unicode="&#xf3;" d="M552 729l-180 -148h-60l128 148h112zM526 352q0 -158 -85 -262.5t-220 -104.5q-85 0 -137.5 50t-52.5 133q0 100 36 184t106 135.5t161 51.5q88 0 140 -53t52 -134zM438 333q0 61 -31 95t-86 34q-87 0 -144.5 -81.5t-57.5 -192.5q0 -59 31 -92.5t85 -33.5q88 0 145.5 79 t57.5 192z" />
<glyph unicode="&#xf4;" d="M485 580h-63l-56 99l-104 -99h-64l128 150h95zM526 352q0 -158 -85 -262.5t-220 -104.5q-85 0 -137.5 50t-52.5 133q0 100 36 184t106 135.5t161 51.5q88 0 140 -53t52 -134zM438 333q0 61 -31 95t-86 34q-87 0 -144.5 -81.5t-57.5 -192.5q0 -59 31 -92.5t85 -33.5 q88 0 145.5 79t57.5 192z" />
<glyph unicode="&#xf5;" d="M526 352q0 -158 -85 -262.5t-220 -104.5q-85 0 -137.5 50t-52.5 133q0 100 36 184t106 135.5t161 51.5q88 0 140 -53t52 -134zM438 333q0 61 -31 95t-86 34q-87 0 -144.5 -81.5t-57.5 -192.5q0 -59 31 -92.5t85 -33.5q88 0 145.5 79t57.5 192zM521 709q-16 -49 -45 -78 t-63 -29q-27 0 -103 26q-16 6 -27 6q-17 0 -26 -6.5t-24 -26.5h-53q19 55 43 79t61 24q7 0 64.5 -16t71.5 -16q15 0 24.5 7.5t23.5 29.5h53z" />
<glyph unicode="&#xf6;" d="M311 604h-91l22 102h91zM473 604h-91l22 102h91zM526 352q0 -158 -85 -262.5t-220 -104.5q-85 0 -137.5 50t-52.5 133q0 100 36 184t106 135.5t161 51.5q88 0 140 -53t52 -134zM438 333q0 61 -31 95t-86 34q-87 0 -144.5 -81.5t-57.5 -192.5q0 -59 31 -92.5t85 -33.5 q88 0 145.5 79t57.5 192z" />
<glyph unicode="&#xf7;" horiz-adv-x="584" d="M516 216h-448v68h448v-68zM344 432q0 -21 -15 -36.5t-37 -15.5t-37 15.5t-15 36.5q0 22 15 37t37 15t37 -15t15 -37zM344 68q0 -22 -15 -37t-37 -15t-37 15t-15 37q0 21 15 36.5t37 15.5t37 -15.5t15 -36.5z" />
<glyph unicode="&#xf8;" horiz-adv-x="611" d="M567 503l-62 -59q21 -40 21 -92q0 -158 -85 -262.5t-220 -104.5q-90 0 -144 57l-56 -52l-31 31l61 58q-20 38 -20 89q0 100 36 184t106 135.5t161 51.5q92 0 145 -58l58 53zM438 333q0 21 -5 44l-290 -273q31 -42 92 -42q88 0 145.5 79t57.5 192zM414 419q-31 43 -93 43 q-87 0 -144.5 -81.5t-57.5 -192.5q0 -26 5 -42z" />
<glyph unicode="&#xf9;" d="M433 0h-76l13 61q-83 -76 -192 -76q-65 0 -101.5 29t-36.5 80q0 19 3 34l84 396h84l-77 -363q-3 -15 -3 -27q0 -35 24 -56t65 -21q64 0 113 48.5t66 129.5l61 289h84zM382 581h-60l-117 148h112z" />
<glyph unicode="&#xfa;" d="M561 729l-180 -148h-60l128 148h112zM433 0h-76l13 61q-83 -76 -192 -76q-65 0 -101.5 29t-36.5 80q0 19 3 34l84 396h84l-77 -363q-3 -15 -3 -27q0 -35 24 -56t65 -21q64 0 113 48.5t66 129.5l61 289h84z" />
<glyph unicode="&#xfb;" d="M494 580h-63l-56 99l-104 -99h-64l128 150h95zM433 0h-76l13 61q-83 -76 -192 -76q-65 0 -101.5 29t-36.5 80q0 19 3 34l84 396h84l-77 -363q-3 -15 -3 -27q0 -35 24 -56t65 -21q64 0 113 48.5t66 129.5l61 289h84z" />
<glyph unicode="&#xfc;" d="M320 604h-91l22 102h91zM482 604h-91l22 102h91zM433 0h-76l13 61q-83 -76 -192 -76q-65 0 -101.5 29t-36.5 80q0 19 3 34l84 396h84l-77 -363q-3 -15 -3 -27q0 -35 24 -56t65 -21q64 0 113 48.5t66 129.5l61 289h84z" />
<glyph unicode="&#xfd;" horiz-adv-x="500" d="M533 729l-180 -148h-60l128 148h112zM540 524l-368 -634q-63 -108 -165 -108q-27 0 -49 10l16 75q36 -4 44 -4q28 0 44 10.5t36 41.5l52 81l-68 528h90l46 -407l233 407h89z" />
<glyph unicode="&#xfe;" d="M536 344q2 -147 -81 -253t-209 -106q-53 0 -86.5 21t-56.5 70l-62 -289h-84l200 942h84l-61 -289q22 43 73.5 71t108.5 28q80 0 127 -52.5t47 -142.5zM448 324q0 65 -31.5 101.5t-87.5 36.5q-81 0 -137.5 -81t-56.5 -189q0 -60 32 -95t87 -35q82 0 139 80.5t55 181.5z " />
<glyph unicode="&#xff;" horiz-adv-x="500" d="M292 604h-91l22 102h91zM454 604h-91l22 102h91zM540 524l-368 -634q-63 -108 -165 -108q-27 0 -49 10l16 75q36 -4 44 -4q28 0 44 10.5t36 41.5l52 81l-68 528h90l46 -407l233 407h89z" />
<glyph unicode="&#x152;" horiz-adv-x="1000" d="M907 0h-434l18 85q-81 -100 -207 -100q-105 0 -169 63t-64 171q0 143 53 263t144 189.5t198 69.5q121 0 166 -88l16 76h430l-17 -82h-336l-51 -238h327l-18 -82h-326l-53 -245h340zM588 539q-28 121 -158 121q-133 0 -211 -137q-30 -52 -51 -140.5t-21 -160.5 q0 -75 42 -115.5t115 -40.5q125 0 210 124z" />
<glyph unicode="&#x153;" horiz-adv-x="944" d="M899 234h-386q-7 -36 -7 -58q2 -50 36.5 -82t92.5 -32q99 0 153 97h84q-23 -76 -93 -125t-160 -49q-58 0 -106 27t-70 80q-38 -51 -94.5 -79t-121.5 -28q-89 0 -139.5 53.5t-50.5 134.5q0 61 20.5 129.5t54.5 119.5q78 117 224 117q127 0 172 -103q32 44 94 73.5 t123 29.5q81 0 136 -49.5t55 -121.5q0 -42 -14 -117zM437 334q0 60 -31 94t-85 34q-82 0 -140 -80.5t-56 -192.5q0 -59 30 -93t82 -34q87 0 143.5 78t56.5 194zM825 306q3 21 3 32q0 57 -31 90.5t-83 33.5q-61 0 -112 -43.5t-71 -112.5h294z" />
<glyph unicode="&#x178;" horiz-adv-x="667" d="M424 799h-91l22 102h91zM586 799h-91l22 102h91zM766 729l-368 -443l-61 -286h-94l61 286l-186 443h112l136 -357l289 357h111z" />
<glyph unicode="&#x2c6;" horiz-adv-x="333" d="M383 580h-63l-56 99l-104 -99h-64l128 150h95z" />
<glyph unicode="&#x2dc;" horiz-adv-x="333" d="M419 709q-16 -49 -45 -78t-63 -29q-27 0 -103 26q-17 6 -27 6q-17 0 -26 -6.5t-24 -26.5h-53q19 55 43 79t61 24q7 0 64.5 -16t71.5 -16q15 0 24.5 7.5t23.5 29.5h53z" />
<glyph unicode="&#x2000;" horiz-adv-x="480" />
<glyph unicode="&#x2001;" horiz-adv-x="961" />
<glyph unicode="&#x2002;" horiz-adv-x="480" />
<glyph unicode="&#x2003;" horiz-adv-x="961" />
<glyph unicode="&#x2004;" horiz-adv-x="320" />
<glyph unicode="&#x2005;" horiz-adv-x="240" />
<glyph unicode="&#x2006;" horiz-adv-x="160" />
<glyph unicode="&#x2007;" horiz-adv-x="160" />
<glyph unicode="&#x2008;" horiz-adv-x="120" />
<glyph unicode="&#x2009;" horiz-adv-x="192" />
<glyph unicode="&#x200a;" horiz-adv-x="53" />
<glyph unicode="&#x2010;" horiz-adv-x="333" d="M286 240h-239l15 72h239z" />
<glyph unicode="&#x2011;" horiz-adv-x="333" d="M286 240h-239l15 72h239z" />
<glyph unicode="&#x2013;" d="M563 240h-567l15 72h567z" />
<glyph unicode="&#x2014;" horiz-adv-x="1000" d="M1003 240h-1011l15 72h1011z" />
<glyph unicode="&#x2018;" horiz-adv-x="222" d="M250 670q-29 -3 -45 -24t-24 -66h47l-22 -103h-93l21 100q13 60 45.5 94.5t78.5 37.5z" />
<glyph unicode="&#x2019;" horiz-adv-x="222" d="M238 608q-13 -59 -44.5 -93.5t-77.5 -37.5l8 38q52 7 67 90h-48l22 103h94z" />
<glyph unicode="&#x201a;" horiz-adv-x="222" d="M109 3q-13 -59 -44.5 -93.5t-77.5 -37.5l8 38q52 7 67 90h-48l22 103h94z" />
<glyph unicode="&#x201c;" horiz-adv-x="333" d="M211 580l-22 -103h-93l21 100q12 59 44 93.5t77 38.5l-8 -39q-52 -7 -66 -90h47zM372 580l-22 -103h-93l21 100q12 59 44 93.5t77 38.5l-8 -39q-51 -7 -67 -90h48z" />
<glyph unicode="&#x201d;" horiz-adv-x="333" d="M381 608q-13 -59 -44.5 -93.5t-77.5 -37.5l8 38q52 7 67 90h-48l22 103h94zM222 608q-13 -59 -44.5 -93.5t-77.5 -37.5l8 38q52 7 67 90h-48l22 103h94z" />
<glyph unicode="&#x201e;" horiz-adv-x="333" d="M251 3q-13 -59 -44.5 -93.5t-77.5 -37.5l8 38q52 7 67 90h-48l22 103h94zM92 3q-13 -59 -44.5 -93.5t-77.5 -37.5l8 38q52 7 67 90h-48l22 103h94z" />
<glyph unicode="&#x2022;" horiz-adv-x="350" d="M326 372q0 -59 -47.5 -105.5t-108.5 -46.5q-42 0 -71 28.5t-29 69.5q0 59 47 105.5t107 46.5q45 0 73.5 -27.5t28.5 -70.5z" />
<glyph unicode="&#x2026;" horiz-adv-x="1000" d="M857 103l-22 -103h-104l22 103h104zM524 103l-22 -103h-104l22 103h104zM191 103l-22 -103h-104l22 103h104z" />
<glyph unicode="&#x202f;" horiz-adv-x="192" />
<glyph unicode="&#x2039;" horiz-adv-x="333" d="M233 188l-18 -82l-125 121l19 89l177 122l-18 -83l-121 -84z" />
<glyph unicode="&#x203a;" horiz-adv-x="333" d="M257 317l-19 -89l-179 -122l18 83l123 84l-88 83l18 82z" />
<glyph unicode="&#x205f;" horiz-adv-x="240" />
<glyph unicode="&#x20ac;" d="M586 642l-49 -80q-46 40 -79 55.5t-72 15.5q-65 0 -114.5 -46t-94.5 -149h285l-36 -59h-270q-10 -29 -15 -66h246l-36 -59h-215v-14q0 -177 128 -177q37 0 74 12.5t105 48.5l-20 -93q-85 -46 -178 -46q-200 0 -200 240q0 18 1 29h-84l35 59h55q5 30 16 66h-79l35 59h63 q47 123 130.5 197t190.5 74q98 0 178 -67z" />
<glyph unicode="&#x2122;" horiz-adv-x="1000" d="M553 678h-138l-73 -342h-62l72 342h-140l11 51h341zM1036 729l-83 -393h-60l65 303l-178 -303h-62l-49 303l-64 -303h-60l84 393h81l53 -324l190 324h83z" />
</font>
</defs>
</svg>
