<?xml version="1.0" standalone="no"?>
<!DOCTYPE svg PUBLIC "-//W3C//DTD SVG 1.1//EN" "http://www.w3.org/Graphics/SVG/1.1/DTD/svg11.dtd" >
<svg xmlns="http://www.w3.org/2000/svg">
<metadata>
This is a custom SVG webfont generated by Font Squirrel.
Designer    : Philipp H. Poll
Foundry     : Philipp H. Poll
Foundry URL : http://linuxlibertine.sf.net
</metadata>
<defs>
<font id="webfontjuoA3SGO" horiz-adv-x="948" >
<font-face units-per-em="2048" ascent="1638" descent="-410" />
<missing-glyph horiz-adv-x="512" />
<glyph unicode=" "  horiz-adv-x="512" />
<glyph unicode="&#x09;" horiz-adv-x="512" />
<glyph unicode="&#xa0;" horiz-adv-x="512" />
<glyph unicode="!" horiz-adv-x="499" d="M250 1348q61 0 104 -40t43 -114q0 -83 -24 -217q-22 -136 -27 -176q-29 -238 -29 -330l-1 -25q-1 -8 -5 -21.5t-10.5 -21t-19.5 -13t-31 -5.5q-47 0 -58.5 24.5t-13.5 86.5q-2 61 -24 305q-18 133 -27 182q-25 129 -25 211q0 79 45.5 116.5t102.5 37.5zM133 92 q0 48 33.5 81.5t81.5 33.5q47 0 80.5 -33.5t33.5 -81.5q0 -46 -33.5 -79t-80.5 -33q-48 0 -81.5 33t-33.5 79z" />
<glyph unicode="&#x22;" horiz-adv-x="749" d="M225 862l-30 8q-66 328 -66 340q0 40 36 75.5t97 35.5q31 0 50.5 -6t28 -18.5t11 -23.5t2.5 -28q0 -14 -19 -107l-37 -178l-19 -86zM494 862l-31 8q-66 328 -66 340q0 40 36 75.5t97 35.5q58 0 75.5 -20.5t17.5 -55.5q0 -14 -19 -107l-38 -178l-19 -86z" />
<glyph unicode="#" d="M524 485l33 205h-143q-11 -60 -35 -205h145zM696 690l-32 -205h198l-16 -114h-199l-55 -344h-139l55 344h-146q-8 -44 -26.5 -163t-30.5 -181h-143l53 344h-180l16 114h182q20 109 33 205h-182l18 117h183l55 342h145l-57 -342h147l27 171l27 171h139l-53 -342h196 l-16 -117h-199z" />
<glyph unicode="$" horiz-adv-x="897" d="M186 20q-15 0 -30.5 -11t-38.5 -11q0 64 -33 301l90 6q18 -68 42.5 -117t71 -87.5t109.5 -47.5v477q-47 18 -84 35.5t-82 49t-74.5 67.5t-50 90t-20.5 117q0 62 29 114t75.5 85.5t99.5 54t107 26.5v115h82v-113q37 -2 92.5 -8.5t78 -8.5t61.5 1q5 -81 41 -293l-88 -8 l-13 37q-32 108 -65.5 153t-106.5 54v-416q41 -13 83.5 -33t90.5 -53t84.5 -72t61 -92.5t24.5 -112.5q0 -64 -17.5 -119t-55 -104.5t-107 -81t-164.5 -37.5v-143h-82v143q-61 4 -129 23.5t-82 19.5zM479 496v-441q65 12 110.5 60t45.5 145q0 152 -156 236zM397 715v381 q-66 -11 -102.5 -62t-36.5 -137q0 -51 41 -100t98 -82z" />
<glyph unicode="%" horiz-adv-x="1304" d="M907 158q0 -59 20 -94t50 -35q53 0 94.5 50.5t60.5 116t19 126.5q0 116 -80 116q-42 0 -81 -46t-61 -110.5t-22 -123.5zM768 186q0 81 31 154t97 122.5t153 49.5q33 0 64 -9t60 -28.5t46.5 -58t17.5 -90.5q0 -96 -32 -178.5t-95 -134.5t-145 -52q-88 0 -142.5 69.5 t-54.5 155.5zM745 1063q213 0 308 102l96 -43l-842 -1155l-98 23l737 1028q-114 -47 -221 -47q-34 0 -78 12.5t-74 30.5q7 -24 7 -43q0 -88 -32 -170t-96.5 -137.5t-146.5 -55.5q-90 0 -143 68t-53 155q0 124 80 225t200 101q43 0 82.5 -12t54.5 -31q111 -51 219 -51z M250 803q0 -58 19.5 -92.5t47.5 -34.5q67 0 121 98.5t54 194.5q0 67 -22.5 90.5t-57.5 23.5q-48 0 -86 -46t-57 -109t-19 -125z" />
<glyph unicode="&#x26;" horiz-adv-x="1492" d="M573 1059q0 -52 64 -178q70 55 113 112.5t43 106.5q0 64 -28 100.5t-71 36.5q-39 0 -80 -46t-41 -132zM795 268q-166 219 -277 391q-110 -70 -153 -149t-43 -186q0 -135 58 -200t144 -65q54 0 100 26.5t81 66t90 116.5zM887 147q-149 -172 -377 -172q-94 0 -170.5 19.5 t-135.5 60t-91.5 109t-32.5 160.5q0 116 87 221t288 221q-107 184 -107 289q0 102 96.5 184t260.5 82q126 0 212.5 -62t86.5 -159q0 -76 -85 -167t-219 -171l7 -14q40 -72 206 -306q164 250 164 336q0 22 10 25h-59q-49 4 -49 20v29l18 20q136 -6 203 -6l207 6l18 -20v-27 q-3 -22 -61 -22h-57q-19 0 -46.5 -40.5t-82.5 -146.5q-95 -176 -172 -301q151 -215 184 -215q90 0 143 129l76 -34q-34 -107 -96.5 -163.5t-134.5 -56.5q-182 0 -291 172z" />
<glyph unicode="'" horiz-adv-x="440" d="M201 862l-31 8q-66 328 -66 340q0 40 36.5 75.5t97.5 35.5q31 0 50.5 -6t28 -18.5t11 -23.5t2.5 -28q0 -14 -19 -107l-38 -178l-19 -86z" />
<glyph unicode="(" horiz-adv-x="645" d="M74 518q0 268 133 520.5t346 436.5l57 -70q-301 -355 -301 -887q0 -546 301 -889l-61 -65q-95 82 -172 174.5t-125.5 173t-84.5 168t-53 150.5t-27 129.5t-11.5 97t-1.5 61.5z" />
<glyph unicode=")" horiz-adv-x="645" d="M571 514q0 -268 -133 -520.5t-346 -435.5l-57 69q301 355 301 887q0 546 -301 889l61 65q95 -82 172 -174.5t125.5 -173t84.5 -168t53 -150.5t27 -129.5t11.5 -97t1.5 -61.5z" />
<glyph unicode="*" horiz-adv-x="886" d="M403 1159q-7 1 -26.5 5.5t-28 5t-29.5 -0.5q-47 -7 -83.5 -8t-59 19.5t-22.5 64.5q0 26 16.5 46t50.5 20q30 0 58.5 -17.5t65 -46t71.5 -43.5q-4 43 -33 102t-29 85q0 31 24.5 55t53.5 24q31 0 56.5 -18.5t25.5 -52.5q0 -29 -24.5 -97t-26.5 -98q30 13 57.5 33.5t43.5 37 t37 28.5t44 12q42 0 61 -23.5t19 -46.5q0 -42 -40.5 -62t-100.5 -20q-74 0 -111 -6q25 -27 73 -52t74.5 -50.5t26.5 -71.5q0 -26 -21 -42.5t-44 -16.5q-45 0 -68.5 31.5t-42 90t-35.5 84.5q-13 -23 -22.5 -56t-15.5 -57t-16.5 -46.5t-32.5 -34.5t-56 -12q-26 0 -43 16.5 t-17 40.5q0 38 18 64t41.5 37.5t56.5 32t54 44.5z" />
<glyph unicode="+" horiz-adv-x="1099" d="M627 551h350v-152h-350v-333h-152v333h-350v152h350v336h152v-336z" />
<glyph unicode="," horiz-adv-x="499" d="M240 209q143 0 143 -209q0 -83 -69.5 -155t-188.5 -93l-14 68q72 18 109.5 56t37.5 73q0 21 -8.5 33t-16 14.5t-20.5 3.5q-88 17 -88 102q0 47 29.5 77t85.5 30z" />
<glyph unicode="-" horiz-adv-x="731" d="M586 477h-459q-35 0 -55.5 12.5t-20.5 30.5q0 27 31 54.5t63 27.5h463q74 0 74 -43q0 -22 -31.5 -52t-64.5 -30z" />
<glyph unicode="." horiz-adv-x="499" d="M135 92q0 48 33.5 81.5t81.5 33.5q47 0 81 -33.5t34 -81.5q0 -46 -34 -79t-81 -33q-48 0 -81.5 33t-33.5 79z" />
<glyph unicode="/" horiz-adv-x="647" d="M618 1397l-485 -1440h-129l485 1440h129z" />
<glyph unicode="0" d="M479 1098q-19 0 -36 -8.5t-37.5 -29t-37 -61t-30 -98.5t-21.5 -148t-8 -202q0 -57 3.5 -115t14.5 -129t28 -124t47.5 -89.5t70.5 -36.5q12 0 26 6.5t33 23t37.5 54t32.5 90.5q41 144 41 396q0 180 -31.5 292t-76.5 150q-34 29 -56 29zM471 -25q-118 0 -210.5 83.5 t-140.5 218.5t-48 294q0 277 119.5 445t287.5 168q73 0 146.5 -39t124.5 -98q129 -174 129 -457q0 -131 -26.5 -238.5t-69 -176t-97.5 -115t-108.5 -66t-106.5 -19.5z" />
<glyph unicode="1" d="M379 963q-36 0 -172 -76l-37 86q127 59 202.5 103t166.5 108h98v-1024q0 -49 11 -67.5t34 -18.5h117q37 0 37 -25v-47l-2 -4l-312 4q-137 0 -321 -4l-4 4v49q1 7 3.5 11t16.5 8t39 4h100q25 0 40.5 23t15.5 63v694q0 68 -6.5 88.5t-26.5 20.5z" />
<glyph unicode="2" d="M115 903q0 46 22.5 94t64.5 90.5t112.5 69.5t156.5 27q57 0 108.5 -8t103 -29.5t88.5 -54t60 -86.5t23 -123q0 -43 -16 -87t-38 -79.5t-66.5 -86t-78.5 -84.5l-98 -93q-227 -221 -227 -320h305q56 0 83.5 33t55.5 133l88 -18q-30 -130 -45 -281h-717q0 65 12.5 113 t62 122t144.5 173l144 147q81 84 116 155t35 164q0 63 -16.5 111t-41.5 73t-50 36.5t-47 11.5q-72 0 -108 -36.5t-36 -78.5q0 -31 9 -49q8 -21 8 -41q0 -40 -34 -61t-75 -21q-44 0 -76 24.5t-32 59.5z" />
<glyph unicode="3" d="M469 1106q-19 0 -44 -6.5t-54.5 -21t-49.5 -45.5t-20 -72q0 -39 -23.5 -73t-78.5 -34q-24 0 -41.5 7t-26.5 16.5t-14.5 21t-6.5 17.5t-1 10q0 22 10.5 52t39 67t71 67t115.5 51t163 21q81 0 141.5 -21t91.5 -54.5t45.5 -68t14.5 -69.5q0 -133 -199 -264q50 -13 94 -35.5 t83.5 -59t63 -92.5t23.5 -125q0 -131 -65.5 -228.5t-171 -144.5t-234.5 -47q-68 0 -138.5 17t-120.5 49.5t-50 71.5q0 25 31 48t73 23t63 -12.5t38 -38.5q19 -31 53 -55.5t78 -24.5q18 0 42.5 8.5t54.5 31.5t55 56.5t42 91t17 128.5q0 241 -215 241q-24 0 -105 -18l-12 78 q111 19 199 107.5t88 162.5q0 78 -36 122t-83 44z" />
<glyph unicode="4" d="M520 160v151h-350q-30 0 -39.5 2.5t-15.5 10.5l-25 34q-22 46 -22 54q0 6 10 16q95 99 185.5 250t143.5 269.5t89 223.5q5 17 55 17q41 0 72 -14q-110 -409 -383 -773h280v254l125 181h90v-435h142l20 -90h-162v-151q0 -86 47 -86h84q39 0 39 -25v-47l-4 -4l-278 4 q-105 0 -289 -4l-2 4v49q0 23 57 23h78q25 0 39 23t14 63z" />
<glyph unicode="5" d="M616 350q0 138 -59 221.5t-139 83.5q-136 0 -293 -65l70 588q139 -13 249 -13q160 0 332 21l39 -21l-31 -133q-153 -12 -241 -12q-146 0 -234 10q-11 -112 -33 -278q68 14 191 14q89 0 162 -31.5t120.5 -84t73 -119.5t25.5 -140q0 -175 -121.5 -295.5t-310.5 -120.5 q-67 0 -139 20t-122.5 56t-50.5 76q0 33 26.5 56.5t70.5 23.5q76 0 114 -74q43 -74 93 -74q84 0 146 78.5t62 212.5z" />
<glyph unicode="6" d="M309 543q-2 -21 -2 -78q0 -96 14 -171t35.5 -120t50 -74.5t55.5 -40t54 -10.5q61 0 104.5 72.5t43.5 216.5q0 40 -9 83.5t-29.5 90t-61.5 76.5t-97 30q-82 0 -158 -75zM842 1124q-50 -3 -80 -7.5t-80.5 -18t-99.5 -44.5t-99 -79q-114 -115 -155 -316q90 41 178 41 q96 0 169.5 -28t112.5 -67t63.5 -90.5t31 -89.5t6.5 -73q0 -46 -10 -93.5t-38 -100t-70 -92t-112.5 -65.5t-160.5 -26q-56 0 -108.5 11.5t-110.5 45.5t-100.5 87t-70.5 143.5t-28 208.5q0 300 213 514q99 99 225 145.5t316 57.5z" />
<glyph unicode="7" d="M276 1153h582l8 -16q-259 -631 -432 -1141l-188 -21l-10 25q300 641 450 1004h-346q-28 0 -43.5 -3.5t-33 -17.5t-30 -43t-24.5 -78l-78 15q46 184 51 301h58q10 -25 36 -25z" />
<glyph unicode="8" d="M481 1106q-57 0 -97 -48t-40 -128q0 -101 168 -189q40 33 69 85t29 110q0 64 -36.5 117t-92.5 53zM465 61q180 0 180 199q0 61 -22.5 113.5t-59 88t-69.5 57t-68 36.5q-45 -33 -73.5 -70.5t-39 -75t-13.5 -59.5t-3 -51q0 -238 168 -238zM829 952q0 -145 -229 -280 q272 -171 272 -350q0 -60 -25.5 -119.5t-74 -111.5t-129 -84t-180.5 -32q-178 0 -280.5 75.5t-102.5 228.5q0 101 60 175t194 164q-217 150 -217 306q0 116 103 190t269 74q161 0 250.5 -63t89.5 -173z" />
<glyph unicode="9" d="M647 616q2 21 2 78q0 96 -14 171t-35.5 120t-50 74.5t-55.5 40t-54 10.5q-60 0 -103.5 -72.5t-43.5 -216.5q0 -40 9 -83.5t29.5 -90t61.5 -76.5t96 -30q82 0 158 75zM115 35q39 2 61.5 4.5t64.5 11.5t74.5 23.5t75 42.5t82.5 67q112 112 156 316q-92 -41 -178 -41 q-96 0 -169.5 28t-112.5 67t-63.5 90.5t-31 89.5t-6.5 73q0 46 10 93.5t37.5 100t69.5 92t113 65.5t161 26q56 0 108.5 -11.5t110.5 -45.5t100.5 -87t70.5 -143.5t28 -208.5q0 -297 -213 -514q-99 -99 -225 -145.5t-316 -57.5z" />
<glyph unicode=":" horiz-adv-x="448" d="M152 731q0 48 33.5 81.5t80.5 33.5q48 0 81.5 -33.5t33.5 -81.5q0 -46 -33.5 -79.5t-81.5 -33.5q-47 0 -80.5 33.5t-33.5 79.5zM152 193q0 47 33.5 80.5t80.5 33.5q48 0 81.5 -33.5t33.5 -80.5t-33.5 -80t-81.5 -33q-47 0 -80.5 33t-33.5 80z" />
<glyph unicode=";" horiz-adv-x="448" d="M242 209q143 0 143 -209q0 -83 -69.5 -155t-188.5 -93l-14 68q72 18 109.5 56t37.5 73q0 21 -8.5 33t-16 14.5t-20.5 3.5q-88 17 -88 102q0 47 29.5 77t85.5 30zM131 731q0 48 33.5 81.5t81.5 33.5q47 0 80.5 -33.5t33.5 -81.5q0 -46 -33.5 -79.5t-80.5 -33.5 q-48 0 -81.5 33.5t-33.5 79.5z" />
<glyph unicode="&#x3c;" horiz-adv-x="1048" d="M313 492l652 -238v-127l-879 319v91l879 319v-127z" />
<glyph unicode="=" horiz-adv-x="1128" d="M1010 406v-115h-889v115h889zM1010 662v-117h-889v117h889z" />
<glyph unicode="&#x3e;" horiz-adv-x="1048" d="M735 487l-649 238v127l879 -322v-90l-879 -317v127z" />
<glyph unicode="?" horiz-adv-x="880" d="M305 92q0 48 33.5 81.5t81.5 33.5q47 0 81 -33.5t34 -81.5q0 -46 -34 -79t-81 -33q-48 0 -81.5 33t-33.5 79zM260 1169q0 -28 16 -55q15 -20 15 -55q0 -36 -36 -58t-85 -22q-43 0 -81 30.5t-38 84.5q0 50 26.5 89t84.5 87q96 80 280 80q174 0 276.5 -85.5t102.5 -228.5 q0 -43 -15.5 -85t-35.5 -72t-56 -64.5t-60 -52.5l-64 -49q-27 -19 -45 -36t-38.5 -45.5t-31 -69.5t-10.5 -93v-47q0 -38 -13.5 -54t-58.5 -16q-44 0 -56.5 16t-12.5 54v51q0 42 3.5 71t16 75t45.5 93.5t84 94.5q57 50 83 100t26 123q0 96 -47 171t-113 75 q-67 0 -114.5 -31.5t-47.5 -75.5z" />
<glyph unicode="@" horiz-adv-x="2105" d="M1321 686q0 60 -35.5 104t-81.5 44q-107 0 -194 -95q-76 -81 -112 -193t-36 -233q0 -219 135 -219q63 0 137 74t117 215q23 72 46.5 168t23.5 135zM1401 102q0 -22 10 -28t33 -6q28 0 68 21t86 66t85 105.5t65 148.5t26 185q0 151 -44 276t-114 205.5t-160.5 136.5 t-180.5 79.5t-177 23.5q-105 0 -210 -31.5t-204.5 -99t-175.5 -162.5t-122 -233.5t-46 -301.5q0 -64 11.5 -136.5t38.5 -156.5t67 -162t103 -151t141 -127t185.5 -86.5t231.5 -32.5q133 0 251.5 44.5t248.5 134.5l49 -70q-64 -48 -116.5 -80t-124.5 -62.5t-159.5 -45.5 t-193.5 -15q-207 0 -387 73.5t-304 198.5t-194.5 295.5t-70.5 360.5q0 193 72.5 364.5t200 297t312 199t398.5 73.5q196 0 362 -64.5t277.5 -175t174 -260t62.5 -317.5q0 -113 -46 -225t-123 -199t-185.5 -141t-224.5 -54q-59 0 -103 14t-65.5 36.5t-31 44t-9.5 42.5 q-120 -110 -254 -110q-79 0 -137.5 23.5t-88.5 55.5t-48 78t-22.5 79t-4.5 69q0 126 50 241t129.5 195.5t181 128t202.5 47.5q151 0 223 -90l90 78l64 -25l-141 -616q-31 -126 -31 -156z" />
<glyph unicode="A" horiz-adv-x="1431" d="M518 590h307l-170 463l-176 -439q0 -15 6.5 -19.5t32.5 -4.5zM303 162q-11 -30 -11.5 -51t24.5 -32t83 -11q25 0 34 -4.5t9 -16.5v-41l-10 -8q-188 4 -237 4l-175 -4l-16 6v43q0 10 6 15t12.5 5.5t22.5 0.5q35 0 74 30t63 88l457 1098q13 33 38.5 48.5t47.5 15.5 q68 0 92 -64l414 -1098q24 -61 48 -89.5t60 -28.5h58q21 0 25.5 -4t4.5 -17v-41l-10 -8q-196 4 -274 4l-295 -4l-17 10v39q0 21 54 21h55q51 0 51 53q0 22 -4 29l-127 344h-377q-32 0 -43 -4.5t-20 -24.5z" />
<glyph unicode="B" horiz-adv-x="1269" d="M453 1151v-381h114q116 0 187 57t71 174q0 58 -15 102t-38 69t-55 41t-60.5 21t-60.5 5q-49 0 -78.5 -5t-43 -17.5t-17.5 -26.5t-4 -39zM453 684v-512q0 -50 24.5 -70t110.5 -20q78 0 138.5 20t96.5 50.5t59 72t31.5 80t8.5 78.5q0 136 -85 218.5t-239 82.5h-145zM45 43 q0 25 37 25h59q36 0 49 17.5t13 66.5v1019q0 47 -13 65.5t-49 18.5h-67q-29 0 -29 21v45l4 4q207 -4 268 -4q26 0 117 2t148 2q119 0 209 -20t142 -51t84.5 -75t43 -85t10.5 -88q0 -78 -56.5 -154t-140.5 -113v-4q308 -81 308 -375q0 -56 -17 -106t-58 -97.5t-103 -81.5 t-158.5 -54.5t-218.5 -20.5h-580l-2 2v41z" />
<glyph unicode="C" horiz-adv-x="1363" d="M760 -20q-136 0 -250.5 37.5t-194.5 101.5t-136 149.5t-82.5 180.5t-26.5 196q0 148 55 279.5t148.5 224t221 146t267.5 53.5q92 0 169 -14t117.5 -31.5t83.5 -31.5t76 -14q12 -161 45 -346l-77 -16q-22 66 -42.5 114t-55 99t-76 83t-103 52.5t-137.5 20.5 q-61 0 -120.5 -21t-115 -67t-97.5 -112t-67.5 -164t-25.5 -216q0 -112 26.5 -219t77 -196.5t133 -144t185.5 -54.5q129 0 243.5 56.5t229.5 186.5l61 -49q-215 -284 -532 -284z" />
<glyph unicode="D" horiz-adv-x="1470" d="M453 154q0 -32 11.5 -46t48 -20t118.5 -6q84 0 152.5 13t133.5 47.5t109.5 89.5t71 144t26.5 206q0 97 -17.5 187.5t-58.5 177.5t-102 151.5t-155 103.5t-211 39q-65 0 -96 -13.5t-31 -58.5v-1015zM49 0l-4 4v45q0 19 16 19h29q62 0 87.5 20.5t25.5 69.5v1007 q0 49 -25.5 69.5t-87.5 20.5h-29q-6 0 -11 5t-5 12v47l4 4h606q204 0 374.5 -93t268 -251.5t97.5 -345.5q0 -145 -44.5 -258.5t-114.5 -182.5t-165.5 -113.5t-187.5 -61.5t-191 -17h-643z" />
<glyph unicode="E" horiz-adv-x="1150" d="M55 0l-6 4v45q0 19 17 19h28q62 0 87.5 20.5t25.5 69.5v1007q0 49 -25.5 69.5t-87.5 20.5h-28q-7 0 -12 5t-5 12v47l6 4h955q12 -176 43 -332l-82 -18q-11 39 -20.5 67.5t-28.5 66.5t-40.5 62.5t-55 42t-72.5 17.5h-267q-28 0 -28 -60v-421h231q18 0 30.5 9.5t20.5 33.5 t11.5 43t9.5 59q0 7 9.5 14.5t23.5 7.5h43l12 -20q-14 -115 -14 -190q0 -69 14 -191l-12 -18h-43q-15 0 -24 6.5t-9 13.5q-6 40 -9.5 59.5t-11.5 43.5t-20.5 33.5t-30.5 9.5h-231v-508q0 -34 7 -47t21 -13h314q80 0 136.5 75.5t84.5 197.5l88 -21q-36 -192 -55 -346h-1000z " />
<glyph unicode="F" horiz-adv-x="1050" d="M457 156q0 -45 25.5 -67.5t86.5 -22.5h29q16 0 16 -19v-47l-4 -4q-204 4 -278 4l-279 -4l-4 4v47q0 19 17 19h28q62 0 87.5 20.5t25.5 69.5v1009q0 49 -25.5 69.5t-87.5 20.5h-28q-7 0 -12 5t-5 12v47l6 4h953q12 -176 43 -332l-82 -18q-11 39 -20.5 67.5t-28.5 66.5 t-40.5 62.5t-55 42t-72.5 17.5h-267q-28 0 -28 -60v-421h231q18 0 30.5 9.5t20.5 33.5t11.5 43t9.5 59q0 7 9.5 14.5t23.5 7.5h43l12 -20q-14 -115 -14 -190q0 -69 14 -191l-12 -18h-43q-15 0 -24 6.5t-9 13.5q-6 40 -9.5 59.5t-11.5 43.5t-20.5 33.5t-30.5 9.5h-231v-506z " />
<glyph unicode="G" horiz-adv-x="1488" d="M1329 469v-236q0 -38 25 -59q-115 -97 -247 -145.5t-316 -48.5q-160 0 -298 51.5t-232.5 140t-148 207.5t-53.5 252q0 131 40.5 246.5t110 200.5t161.5 146.5t198 92.5t215 31q94 0 171.5 -14t118 -31.5t83.5 -31.5t76 -14q7 -143 45 -346l-80 -16q-24 80 -53.5 140 t-77 115t-119.5 84.5t-166 29.5q-123 0 -227 -74.5t-166.5 -211.5t-62.5 -308q0 -118 32.5 -225t94 -191t158.5 -134t216 -50q71 0 142 20.5t121 61.5v317q0 45 -41 66.5t-107 21.5h-29q-16 0 -16 18v48l4 4q199 -4 279 -4l266 4l4 -4v-48q0 -18 -16 -18h-13 q-58 0 -75 -20.5t-17 -67.5z" />
<glyph unicode="H" horiz-adv-x="1480" d="M1028 1165q0 49 -25.5 69.5t-87.5 20.5h-28q-6 0 -11.5 5t-5.5 12v49l4 4q199 -4 279 -4l281 4l4 -4v-49q0 -17 -17 -17h-28q-61 0 -87 -22.5t-26 -67.5v-1009q0 -45 26 -67.5t87 -22.5h28q17 0 17 -19v-47l-4 -4q-207 4 -281 4l-279 -4l-4 4v47q0 9 5 14t12 5h28 q62 0 87.5 20.5t25.5 69.5v501h-573v-501q0 -45 25.5 -67.5t86.5 -22.5h29q16 0 16 -19v-47l-4 -4q-207 4 -280 4l-279 -4l-4 4v47q0 19 16 19h29q62 0 87.5 20.5t25.5 69.5v1009q0 49 -25.5 69.5t-87.5 20.5h-29q-6 0 -11 5t-5 12v49l4 4q199 -4 279 -4l280 4l4 -4v-49 q0 -17 -16 -17h-29q-61 0 -86.5 -22.5t-25.5 -67.5v-413h573v413z" />
<glyph unicode="I" horiz-adv-x="653" d="M453 156q0 -45 25.5 -67.5t86.5 -22.5h29q16 0 16 -19v-47l-4 -4q-205 4 -278 4l-279 -4l-4 4v47q0 19 16 19h29q62 0 87.5 20.5t25.5 69.5v1009q0 49 -25.5 69.5t-87.5 20.5h-29q-6 0 -11 5t-5 12v49l4 4q199 -4 279 -4l278 4l4 -4v-49q0 -17 -16 -17h-29 q-61 0 -86.5 -22.5t-25.5 -67.5v-1009z" />
<glyph unicode="J" horiz-adv-x="694" d="M272 1139q0 50 -34.5 83t-94.5 33h-37q-6 0 -11 5t-5 12v49l4 2q221 -2 301 -2l281 2l4 -2v-49q0 -17 -16 -17h-29q-61 0 -87 -22.5t-26 -67.5v-981q0 -178 -33.5 -289t-123.5 -208q-91 -88 -211 -88q-36 0 -73 6.5t-75.5 21.5t-63 44.5t-24.5 70.5q0 36 26 52t62 16 q27 0 46.5 -9t30 -25t14.5 -26.5t7 -25.5q1 -15 18.5 -31.5t29.5 -16.5q59 0 89.5 104t30.5 359v1000z" />
<glyph unicode="K" horiz-adv-x="1351" d="M453 156q0 -45 25.5 -67.5t86.5 -22.5h29q16 0 16 -19v-47l-4 -4q-205 4 -278 4l-279 -4l-4 4v47q0 19 16 19h29q62 0 87.5 20.5t25.5 69.5v1009q0 49 -25.5 69.5t-87.5 20.5h-29q-6 0 -11 5t-5 12v49l4 4q199 -4 279 -4l276 4l4 -4v-49q0 -17 -14 -17h-31 q-61 0 -85.5 -22t-24.5 -68v-411l426 399q12 12 23 27t17.5 32t-2.5 28t-36 11q-82 0 -82 25v43l8 6q194 -4 274 -4l240 4l10 -6v-43q0 -22 -61 -25q-108 -17 -234 -137l-317 -287q-66 -61 -76 -88t21 -61l489 -520q83 -88 125 -88h37q15 0 22.5 -3t9 -8t1.5 -14v-45l-7 -4 q-188 4 -266 4l-162 -4l-8 8v53q0 24 -1 35t-8 26t-22 29l-421 455v-446z" />
<glyph unicode="L" horiz-adv-x="1101" d="M205 1165q0 49 -26 69.5t-87 20.5h-29q-18 0 -18 17v49l4 4q201 -4 281 -4l276 4l4 -4v-49q0 -17 -14 -17h-31q-61 0 -85.5 -22t-24.5 -68v-977q0 -45 18 -69.5t51 -24.5h176q58 0 105 25t78.5 68t51.5 87.5t34 96.5l80 -17q-44 -209 -50 -354h-702l-244 -4l-8 4v41 q0 25 33 25h65q37 0 49.5 16.5t12.5 64.5v1018z" />
<glyph unicode="M" horiz-adv-x="1746" d="M1456 1165l88 -1009q5 -47 29 -68.5t84 -21.5h29q16 0 16 -19v-47l-4 -4q-203 4 -275 4l-249 -4l-5 4v47q0 9 5.5 14t11.5 5h28q61 0 84.5 21t18.5 69l-64 757l-366 -899q-19 -39 -60 -39q-17 0 -35.5 10t-25.5 29l-379 906l-43 -764q-3 -50 20.5 -70t86.5 -20h28 q17 0 17 -19v-47l-4 -4q-150 4 -222 4l-217 -4l-4 4v47q0 19 17 19h20q63 0 94.5 21t34.5 69l57 1009q3 52 -15 71t-77 19h-28q-19 0 -19 17v49l4 2h346l420 -999l389 999h318l4 -2v-49q0 -17 -17 -17h-28q-62 0 -89 -22.5t-24 -67.5z" />
<glyph unicode="N" horiz-adv-x="1454" d="M1118 1165q0 49 -25 69.5t-85 20.5h-29q-18 0 -18 17v49l4 2q139 -2 219 -2l219 2l4 -2v-49q0 -17 -16 -17h-29q-61 0 -87 -22.5t-26 -67.5v-1114q0 -76 -78 -76q-24 0 -43.5 9.5t-29 19t-23.5 27.5l-717 932v-807q0 -45 26 -67.5t87 -22.5h29q16 0 16 -19v-47l-4 -4 q-150 4 -221 4l-232 -4l-4 4v47q0 19 17 19h28q129 0 129 90v991q-24 34 -39.5 52.5t-44 37t-59.5 18.5q-24 0 -32.5 5.5t-8.5 17.5v39l6 6h297l770 -979v821z" />
<glyph unicode="O" horiz-adv-x="1495" d="M719 1264q-54 0 -106 -21t-101 -67.5t-86 -114t-59.5 -168t-22.5 -221.5q0 -141 35 -257t95.5 -192.5t140.5 -118t171 -41.5q159 0 262 155.5t103 416.5q0 151 -35 273t-95 198.5t-137 117t-165 40.5zM1421 674q0 -204 -82 -361t-236 -245t-358 -88q-187 0 -338 78.5 t-241 229.5t-90 349q0 199 85 361t238 256t344 94q136 0 259 -48.5t216 -135t148 -214t55 -276.5z" />
<glyph unicode="P" horiz-adv-x="1116" d="M455 1237v-578q42 -6 100 -6q266 0 266 303q0 299 -246 299q-46 0 -120 -18zM203 158v1013q0 95 -70 95h-65q-23 0 -23 16v39l10 2q55 0 251.5 8t285.5 8q118 0 208.5 -25t142 -61.5t84.5 -86t43.5 -91.5t10.5 -84q0 -56 -14.5 -111t-51.5 -112t-93.5 -99.5t-148.5 -70 t-208 -27.5q-71 0 -110 7l-2 -420q0 -44 26 -67t86 -23h29q16 0 16 -19v-47l-4 -4q-207 4 -280 4l-277 -4l-4 4v47q0 19 16 19h29q62 0 87.5 20.5t25.5 69.5z" />
<glyph unicode="Q" horiz-adv-x="1495" d="M719 1264q-54 0 -106 -21t-101 -67.5t-86 -114t-59.5 -168t-22.5 -221.5q0 -141 35 -257t95.5 -192.5t140.5 -118t171 -41.5q159 0 262 155.5t103 416.5q0 151 -35 273t-95 198.5t-137 117t-165 40.5zM285 -313q55 79 149.5 162t202.5 139q-161 22 -287 105t-200 224.5 t-74 319.5q0 199 85 361t238 256t344 94q136 0 259 -48.5t216 -135t148 -214t55 -276.5q0 -192 -72.5 -342.5t-209.5 -241.5t-320 -106q-107 -40 -229 -127h20q76 0 159 -26.5t144 -57.5t135 -57.5t134 -26.5q49 0 98 18.5t80 56.5l35 -45q-61 -87 -130.5 -127.5 t-164.5 -40.5q-74 0 -143.5 20t-124.5 49l-104 57q-51 29 -106.5 49t-107.5 20q-32 0 -77 -29.5t-72 -91.5z" />
<glyph unicode="R" horiz-adv-x="1247" d="M844 958q0 145 -64 221t-162 76q-87 0 -165 -16v-580h100q149 0 220 73t71 226zM1090 987q0 -100 -29.5 -174.5t-78.5 -121.5t-126 -89l211 -401q67 -134 190 -119l9 -72q-73 -22 -168 -22q-86 0 -154.5 48t-112.5 126l-184 344q-20 36 -63.5 47.5t-130.5 11.5v-407 q0 -48 25.5 -69t86.5 -21h29q16 0 16 -19v-47l-4 -4q-151 4 -231 4l-326 -4l-4 4v47q0 19 16 19h29q61 0 87 22.5t26 67.5v987q0 48 -12 70t-50 22h-14l-61 -6q-17 0 -17 14v70q34 8 210.5 16t348.5 8q96 0 180 -20.5t153 -61.5t109 -110.5t40 -159.5z" />
<glyph unicode="S" horiz-adv-x="972" d="M782 1292q11 -134 43 -311l-82 -10q-12 46 -26 83.5t-37.5 79t-52 69.5t-70.5 46.5t-92 18.5q-95 0 -139.5 -57.5t-44.5 -151.5q0 -46 26 -91.5t66 -79t80 -57.5t75 -36q58 -21 105.5 -43.5t100 -59t88 -79t58.5 -104t23 -132.5q0 -100 -31 -177t-86.5 -124.5t-129 -71.5 t-162.5 -24q-88 0 -149.5 7.5t-93.5 15t-48 7.5q-21 0 -49.5 -5t-44.5 -5q-4 89 -39 358l82 7q30 -139 112 -220.5t187 -81.5q116 0 174.5 59.5t58.5 174.5q0 92 -47.5 164t-138.5 108q-412 161 -412 424q0 88 34.5 158.5t90.5 112t121.5 63t134.5 21.5q84 0 136 -10 t95.5 -25t83.5 -21z" />
<glyph unicode="T" horiz-adv-x="1222" d="M178 1321h866q46 0 46 49l73 8q12 -155 45 -315l-82 -10q-11 43 -19.5 70t-20.5 47.5t-22.5 31t-30 16.5t-37.5 7.5t-50 1.5h-110q-56 0 -77.5 -18t-21.5 -68v-985q0 -48 26 -69t87 -21h53q7 0 12 -5t5 -14v-47l-5 -4q-243 4 -323 4l-283 -4l-4 4v47q0 19 17 19h53 q61 0 86.5 22.5t25.5 67.5v991q0 46 -21.5 63t-78.5 17h-108q-32 0 -50.5 -1.5t-38 -7.5t-30.5 -16.5t-23 -30.5t-21 -48t-20 -70l-80 10q32 149 45 315l74 -8q0 -49 43 -49z" />
<glyph unicode="U" horiz-adv-x="1388" d="M1067 1165q0 49 -26 69.5t-87 20.5h-28q-19 0 -19 17v49l4 2q150 -2 230 -2l229 2l4 -2v-49q0 -17 -16 -17h-29q-61 0 -86.5 -22.5t-25.5 -67.5v-561q0 -83 -5.5 -149.5t-21 -133t-40.5 -116.5t-66 -93.5t-96 -71.5t-131.5 -44t-172.5 -16q-64 0 -130 14.5t-136 51.5 t-123.5 92.5t-88 145t-34.5 201.5v680q0 49 -25.5 69.5t-85.5 20.5h-28q-8 0 -13.5 5t-5.5 12v49l4 2q199 -2 281 -2l276 2l5 -2v-49q0 -17 -17 -17h-28q-61 0 -86 -22t-25 -68v-612q0 -69 2 -107.5t9.5 -98t28.5 -104.5t54 -79q104 -101 209 -101q63 0 113.5 17t85.5 44.5 t61 68.5t41 83.5t24 96t12 98.5t3 98v596z" />
<glyph unicode="V" horiz-adv-x="1302" d="M874 1255q-6 0 -11 5t-5 12v49l4 2q178 -2 258 -2l180 2l5 -2v-49q0 -17 -17 -17q-58 0 -87 -11.5t-44.5 -35.5t-38.5 -84l-411 -1101q-9 -21 -31 -34.5t-39 -13.5q-19 0 -39.5 13t-28.5 35l-389 1112q-27 73 -57.5 96.5t-106.5 23.5q-6 0 -11 5t-5 12v49l4 2 q199 -2 279 -2l295 2l4 -2v-49q0 -17 -17 -17q-98 0 -130 -18t-15 -66l256 -729l22 -63l25 57l266 715q26 65 5 84.5t-120 19.5z" />
<glyph unicode="W" horiz-adv-x="2043" d="M639 -25q-48 0 -74 23.5t-45 73.5l-356 1079q-39 104 -113 104h-26q-25 0 -25 17v47l4 4q150 -2 227 -2l289 2l6 -4v-45q0 -19 -18 -19q-66 0 -87.5 -15.5t-2.5 -68.5l239 -725l48 -147l47 143l151 463q15 47 15 78q0 29 -11 57l-43 131q-12 43 -43 63.5t-90 20.5h-6 q-25 0 -25 17v47l5 4q114 -2 196 -2l348 2l4 -4v-49q0 -7 -5.5 -11t-10.5 -4q-23 0 -36.5 -1t-31.5 -4.5t-27 -11.5t-15.5 -20.5t-4.5 -33.5t11 -49l233 -711l43 -139l53 155l242 725q18 53 -11 71.5t-108 18.5q-6 0 -11 5t-5 10v49l6 4q166 -2 252 -2l172 2l4 -2v-49 q0 -17 -25 -17h-22q-59 0 -84.5 -21.5t-46.5 -86.5l-350 -1057q-20 -62 -47 -88.5t-70 -26.5q-60 0 -88 25t-45 80l-224 672q-9 26 -12 26q-4 0 -8 -20l-227 -690q-14 -44 -45 -68.5t-70 -24.5z" />
<glyph unicode="X" horiz-adv-x="1449" d="M49 1270v51l10 2q31 0 115.5 -1t91.5 -1q3 0 72.5 0.5t149.5 1t108 0.5q6 -2 8 -2v-51q0 -15 -10 -15q-78 0 -93 -18t17 -66l219 -323q20 -27 29 -27.5t29 23.5q182 222 241 327q45 84 -75 84q-15 0 -15 15v51l4 2q25 0 131.5 -1t114.5 -1q2 0 90.5 1t110.5 1l4 -2v-51 q0 -15 -19 -15q-71 0 -121.5 -31.5t-103.5 -93.5l-295 -346q-28 -32 -23 -53t58 -92l313 -430q104 -143 217 -143q15 0 15 -17v-49l-2 -4q-116 4 -217 4l-340 -4l-6 4v51q0 6 3.5 10.5t8.5 4.5q89 0 99 15t-32 69l-249 354q-32 47 -44.5 50.5t-33.5 -26.5 q-131 -169 -254 -370q-15 -25 -16.5 -42.5t5.5 -27t22.5 -15t28.5 -6.5t31 -1q13 0 13 -17v-49l-6 -4q-240 4 -269 4l-172 -4l-2 4v51q0 15 23 15q43 0 77 10t64 35t46 43.5t48 58.5l299 383q26 31 24.5 48t-32.5 61l-295 419q-53 76 -103.5 103.5t-88.5 27.5q-23 0 -23 15z " />
<glyph unicode="Y" horiz-adv-x="1263" d="M520 147v428l-321 558q-49 81 -77.5 101.5t-74.5 20.5h-24q-23 0 -23 15v51l4 4q234 -4 260 -4l234 4l4 -4v-49q0 -17 -15 -17q-42 0 -63 -2t-32.5 -10.5t-8 -22.5t19.5 -40l285 -496l262 496q17 31 -8 53t-80 22q-12 0 -12 15v51l4 4q162 -4 186 -4l220 4l4 -4v-49 q0 -17 -21 -17h-43q-47 0 -73 -16t-52 -63l-305 -576v-453q0 -46 25.5 -62.5t87.5 -16.5h55q16 0 16 -19v-47l-4 -4q-223 4 -303 4l-305 -4l-2 4v47q0 19 14 19h56q62 0 86 18t24 61z" />
<glyph unicode="Z" horiz-adv-x="1277" d="M1171 0h-1091q-39 0 -39 31q0 24 16 47l797 1108q7 10 10.5 16t6.5 14.5t-2.5 12.5t-18.5 4h-440q-38 0 -67.5 -7t-52.5 -23.5t-39 -34.5t-30.5 -49t-24 -56.5t-22.5 -67.5l-80 11q32 156 45 342q30 -3 71.5 -15t94.5 -12h731q107 10 129 10q28 0 36.5 -4.5t8.5 -15.5 q0 -32 -49 -101l-766 -1063q-22 -29 -16.5 -43t49.5 -14h457q56 0 99 19t72.5 56t48.5 80t36 103l84 -10q-43 -202 -54 -338z" />
<glyph unicode="[" horiz-adv-x="768" d="M702 1411v-104h-296v-1608h296v-105h-522v1817h522z" />
<glyph unicode="\" horiz-adv-x="628" d="M156 1430l471 -1528h-133l-471 1528h133z" />
<glyph unicode="]" horiz-adv-x="768" d="M-18 -410v105h297v1608h-297v104h522v-1817h-522z" />
<glyph unicode="^" horiz-adv-x="1060" d="M530 1165l-184 -456h-117l260 622h86l259 -622h-117z" />
<glyph unicode="_" horiz-adv-x="995" d="M987 -211v-104h-977v104h977z" />
<glyph unicode="`" horiz-adv-x="802" d="M406 1432l135 -244q12 -21 12 -51q0 -14 -10.5 -23.5t-24.5 -9.5q-18 0 -61 39l-240 207l4 22q78 64 144 64q23 0 41 -4z" />
<glyph unicode="a" horiz-adv-x="974" d="M575 98q-135 -118 -256 -118q-130 0 -187.5 53t-57.5 162q0 47 17.5 86t46.5 67.5t76.5 53.5t97 43t118.5 38l148 43q0 76 -7 131.5t-18.5 88.5t-30.5 52.5t-39.5 26t-48.5 6.5q-61 0 -103 -19t-42 -52q0 -23 6 -50.5t6 -37.5q0 -24 -33 -51t-73 -27q-53 0 -75 22t-22 64 q0 58 60 112.5t144.5 85.5t160.5 31q70 0 124.5 -14.5t105 -51t78.5 -109.5t28 -179v-297q0 -35 1 -54.5t5 -45.5t12.5 -39.5t24.5 -23t39 -9.5q21 0 34 8t19 16.5t10 8.5q6 0 16.5 -15.5t10.5 -25.5q0 -7 -23 -29.5t-70 -45.5t-98 -23q-89 0 -135 28.5t-65 89.5h-5z M578 174v275l-117 -35q-101 -30 -136.5 -74.5t-35.5 -114.5q0 -133 129 -133q26 0 72 24.5t88 57.5z" />
<glyph unicode="b" horiz-adv-x="1034" d="M377 115q47 -52 102 -52q118 0 181 105.5t63 282.5q0 148 -56 251t-132 103q-63 0 -158 -64v-626zM152 1153q0 93 -14 121.5t-48 28.5l-65 4q-13 0 -13 10l-6 59q75 5 192 22.5t152 31.5q33 0 33 -21q-6 -82 -6 -215v-371q118 86 209 86q155 0 263.5 -113.5t108.5 -297.5 q0 -95 -27 -179t-72.5 -145t-105.5 -105.5t-127.5 -66.5t-136.5 -22q-126 0 -215 102l-61 -109l-70 13q9 63 9 166v1001z" />
<glyph unicode="c" horiz-adv-x="890" d="M831 178q-46 -94 -129.5 -146t-191.5 -52q-214 0 -324 113.5t-110 318.5q0 216 128.5 356.5t313.5 140.5q158 0 241 -61.5t83 -151.5q0 -49 -27.5 -81.5t-75.5 -32.5t-79.5 27t-36.5 69q-6 59 -33 102t-80 43q-85 0 -143 -97.5t-58 -262.5q0 -162 75 -270.5t179 -108.5 q58 0 110 30t118 103z" />
<glyph unicode="d" horiz-adv-x="1079" d="M684 702q-80 121 -162 121q-35 0 -69 -16.5t-67.5 -55t-54 -115t-20.5 -181.5q0 -184 60 -278.5t153 -94.5q65 0 160 90v530zM909 1194v-958q0 -51 27.5 -79.5t103.5 -35.5l4 -64q-166 -17 -290 -82h-70l4 97q-60 -52 -106 -72t-109 -20q-165 0 -281 126t-116 314 q0 227 139 366q67 62 145 92.5t191 30.5q27 0 70 -15.5t63 -35.5v295q0 94 -13.5 122t-47.5 28l-66 4q-12 0 -12 10l-6 59q75 5 191.5 22.5t152.5 31.5q32 0 32 -21q-6 -82 -6 -215z" />
<glyph unicode="e" horiz-adv-x="944" d="M315 584h328q4 4 4 22q0 111 -44 164t-95 53q-16 0 -34 -4.5t-44 -20t-47.5 -40t-40.5 -70t-27 -104.5zM813 223l51 -43q-99 -200 -360 -200q-113 0 -198.5 34.5t-136 94.5t-75 134.5t-24.5 162.5q0 113 38.5 210t101 159.5t141 98t159.5 35.5q87 0 154 -21.5t107.5 -56 t66.5 -83.5t35.5 -98t9.5 -105q0 -43 -80 -43h-498v-53q0 -151 79.5 -253t199.5 -102q122 0 229 129z" />
<glyph unicode="f" horiz-adv-x="688" d="M203 154v639h-94q-34 0 -45 4.5t-11 15.5v29q0 16 22 31.5t68 15.5h60v20q0 122 32.5 223t87 165t122.5 98.5t141 34.5q61 0 112 -12.5t82 -31t52 -40t29.5 -39t8.5 -29.5q0 -41 -25.5 -71.5t-68.5 -30.5q-78 0 -125 81q-46 86 -104 86q-16 0 -30 -6.5t-31 -29t-29 -59 t-20.5 -102.5t-8.5 -153v-104h197q27 0 34 -5t7 -16v-41q0 -34 -72 -34h-166v-633q0 -80 111 -90l36 -4q17 -6 17 -19v-47l-4 -4q-197 4 -277 4l-248 -4l-4 4v47q0 14 17 19l28 4q54 8 76.5 25t22.5 59z" />
<glyph unicode="g" horiz-adv-x="1040" d="M639 582q0 119 -44.5 187.5t-117.5 68.5q-63 0 -102 -56.5t-39 -165.5q0 -42 9 -85.5t27 -85t52.5 -67.5t79.5 -26q23 0 44 9t43 31.5t35 71t13 118.5zM375 -31q-47 0 -68 8q-29 -30 -37 -69.5t-8 -104.5q0 -51 24.5 -92.5t60 -64.5t69 -35t57.5 -12q81 0 159 26 t134.5 81.5t56.5 127.5q0 141 -299 141q-11 0 -63 -4q-31 -2 -86 -2zM915 784q-57 0 -75 60q-12 24 -31 24q-31 0 -59 -37q110 -91 110 -243q0 -144 -107 -228t-259 -84q-106 0 -170 31q-15 -28 -15 -100q0 -55 29 -81t63 -26q2 0 74.5 7.5t118.5 7.5q95 0 171 -16.5 t120.5 -41t74 -56.5t40 -60t10.5 -54q0 -108 -90 -195.5t-225 -133t-279 -45.5q-66 0 -125.5 14t-110 42t-80.5 78t-30 115q0 60 43 123t123 117q-99 60 -99 150t107 188q-57 39 -91 110.5t-34 147.5q0 92 53.5 164t139 109.5t184.5 37.5q123 0 192 -39q43 39 103 62.5 t104 23.5q54 0 82.5 -28t28.5 -62q0 -37 -24 -59.5t-67 -22.5z" />
<glyph unicode="h" horiz-adv-x="1126" d="M958 158q0 -41 23.5 -59.5t77.5 -28.5l22 -4q17 -6 17 -19v-47l-4 -4q-172 4 -252 4l-234 -4l-4 4v47q0 14 17 19l14 4q28 8 42.5 13.5t29.5 15t20.5 24t5.5 35.5v446q0 119 -20 157t-82 38q-32 0 -99.5 -27t-132.5 -74v-540q0 -40 22 -56t79 -32l14 -4q16 -6 16 -19v-47 l-4 -4q-164 4 -243 4l-244 -4l-4 4v47q0 14 16 19l25 4q51 8 74.5 27t23.5 61v995q0 94 -13.5 122t-47.5 28l-66 4q-12 0 -12 10l-6 59q75 5 192 22.5t152 31.5q33 0 33 -21q-7 -82 -7 -215v-414q82 61 170 96t148 35q129 0 185 -81.5t56 -247.5v-424z" />
<glyph unicode="i" horiz-adv-x="585" d="M432 657v-499q0 -41 23 -59.5t73 -28.5l21 -4q16 -6 16 -19v-47l-4 -4q-166 4 -246 4l-239 -4l-4 4v47q0 14 14 19l25 4q50 8 73 27t23 61v499q0 73 -11 99t-34 28l-84 9l-4 61q259 33 350 61q14 0 14 -6q-6 -149 -6 -252zM195 1169q0 51 36 87t86 36q51 0 87 -36t36 -87 q0 -50 -36 -86t-87 -36q-50 0 -86 36t-36 86z" />
<glyph unicode="j" horiz-adv-x="571" d="M424 657v-514q0 -137 -16.5 -240.5t-56.5 -188t-113.5 -129t-180.5 -44.5q-81 0 -142.5 31.5t-61.5 93.5q0 41 21.5 63.5t51.5 22.5q44 0 72.5 -21t38.5 -45.5t24.5 -45.5t32.5 -21q28 0 49 20.5t32 60t17.5 81.5t8 100.5t1.5 101.5t-1.5 100t-1.5 81v493q0 73 -11 99 t-34 28l-84 9l-4 61q251 32 348 61q4 0 9 -2.5t5 -5.5q-4 -147 -4 -250zM180 1169q0 51 36.5 87t86.5 36q51 0 87 -36t36 -87q0 -50 -36 -86t-87 -36q-50 0 -86.5 36t-36.5 86z" />
<glyph unicode="k" horiz-adv-x="1071" d="M170 158v995q0 94 -13.5 122t-47.5 28l-66 4q-12 0 -12 10l-6 59q74 5 191.5 22.5t152.5 31.5q32 0 32 -21q-6 -82 -6 -215v-684q54 8 115 57q51 46 131 148q23 29 22.5 54t-14.5 37t-31 13l-43 4q-16 1 -21 6t-5 15v45l10 4q137 -4 209 -4l236 4l6 -4v-45 q0 -13 -3.5 -16.5t-17.5 -4.5l-61 -4q-27 -1 -75.5 -31.5t-86.5 -68.5l-154 -168q-12 -15 6 -41l238 -350q25 -38 57.5 -61.5t57.5 -26.5l59 -6q17 -5 17 -13v-53l-7 -4q-143 4 -223 4l-172 -4l-4 4v53q0 36 -33 107q-37 77 -139 229q-16 23 -31.5 30t-42.5 9v-270 q0 -40 22 -56t79 -32l14 -4q16 -6 16 -19v-47l-4 -4q-164 4 -243 4l-244 -4l-4 4v47q0 14 16 19l25 4q51 8 74.5 27t23.5 61z" />
<glyph unicode="l" horiz-adv-x="591" d="M195 1153q0 93 -14 121.5t-48 28.5l-65 4q-13 0 -13 10l-6 59q75 5 192 22.5t152 31.5q33 0 33 -21q-6 -82 -6 -215v-1036q0 -41 23 -59.5t77 -28.5l23 -4q16 -6 16 -19v-47l-4 -4q-172 4 -252 4l-244 -4l-4 4v47q0 14 17 19l24 4q52 8 75.5 27t23.5 61v995z" />
<glyph unicode="m" horiz-adv-x="1640" d="M420 780h4q145 129 287 129q79 0 133 -36.5t78 -98.5q155 135 315 135q63 0 107 -18t69 -45.5t38.5 -74t17.5 -90t4 -106.5v-419q0 -40 22.5 -56t77.5 -30l16 -4q17 -6 17 -19v-47l-4 -4q-166 4 -246 4l-219 -4l-4 4v47q0 15 16 19q52 4 75 25t23 65v465q0 89 -22 132.5 t-60 43.5q-104 0 -223 -101q4 -52 4 -118v-422q0 -26 8 -43.5t24 -26.5t31.5 -13t37.5 -7q16 0 16 -19v-47l-4 -4q-148 4 -228 4l-221 -4l-4 4v47q0 15 19 19q51 5 73.5 26t22.5 64v460q0 181 -84 181q-95 0 -213 -99v-544q0 -26 8 -43t24 -26t30 -12.5t36 -6.5 q19 -6 19 -19v-47l-4 -4q-148 4 -230 4l-237 -4l-4 4v47q0 14 16 19l18 4q56 12 77.5 27.5t21.5 56.5v503q0 73 -11 99t-34 28l-84 9l-4 61q244 31 344 61q14 0 14 -6z" />
<glyph unicode="n" horiz-adv-x="1153" d="M426 780q168 129 309 129q64 0 110 -17t73 -44.5t42 -72t20 -89t5 -106.5v-424q0 -40 22.5 -56t77.5 -30l17 -4q16 -6 16 -19v-47l-4 -4q-164 4 -244 4l-229 -4l-4 4v47q0 14 16 19l9 2q54 14 76 31t22 57v438q0 112 -16.5 156.5t-69.5 44.5q-93 0 -248 -97v-542 q0 -39 23 -56.5t75 -31.5l8 -2q17 -6 17 -19v-47l-4 -4q-156 4 -236 4l-237 -4l-4 4v47q0 14 16 19l18 4q55 12 77 28.5t22 57.5v501q0 73 -11 99t-34 28l-84 9l-4 61q244 31 344 61q14 0 14 -6l-4 -129h4z" />
<glyph unicode="o" horiz-adv-x="1062" d="M512 825q-62 0 -107.5 -54t-65.5 -132.5t-20 -169.5q0 -60 15 -127t43.5 -130t77 -103.5t108.5 -40.5q32 0 60.5 12.5t57.5 43.5t46.5 96t17.5 157q0 215 -63 331.5t-170 116.5zM70 424q0 216 122.5 350.5t339.5 134.5q97 0 176 -28t131 -74t87.5 -107.5t51 -126 t15.5 -131.5q0 -63 -17 -127t-54.5 -124.5t-90.5 -107t-131 -75t-170 -28.5q-108 0 -198 39.5t-145.5 103.5t-86 142t-30.5 159z" />
<glyph unicode="p" horiz-adv-x="1071" d="M399 698v-565q35 -37 68.5 -52t56.5 -15q64 0 112 32t75 86t40 116t13 130q0 181 -46.5 277t-135.5 96q-38 0 -88.5 -28.5t-94.5 -76.5zM399 780q53 59 118 94t130 35q107 0 189 -61.5t122.5 -156.5t40.5 -206q0 -230 -157 -389q-116 -116 -305 -116q-72 0 -138 34v-329 q0 -41 22.5 -59t76.5 -32l16 -4q16 -3 16 -16v-49l-2 -4q-166 4 -245 4l-238 -4l-4 4v49q0 13 16 16l19 4q54 12 76 31t22 60v972q0 73 -10.5 99t-34.5 28l-84 9l-4 61q244 31 344 61q14 0 14 -6l-4 -129h4z" />
<glyph unicode="q" horiz-adv-x="1060" d="M686 715q-70 108 -164 108q-98 0 -157.5 -99t-59.5 -255q0 -86 18 -155t45.5 -111t63.5 -70t70 -38.5t67 -10.5q49 0 117 41v590zM686 -317v333q-29 -13 -82.5 -24.5t-103.5 -11.5q-92 0 -166 28.5t-121.5 73.5t-79.5 105t-45.5 119.5t-13.5 119.5q0 207 126.5 345 t327.5 138q125 0 228 -88q43 51 74.5 72.5t64.5 21.5q7 0 13.5 -5.5t6.5 -16.5q-4 -166 -4 -236v-974q0 -40 23 -57t78 -32l16 -4q16 -4 16 -18v-47l-4 -4q-163 4 -243 4l-240 -4l-4 4v47q0 15 16 18l21 4q54 12 75 30t21 59z" />
<glyph unicode="r" horiz-adv-x="821" d="M424 780q125 129 262 129q52 0 85.5 -35.5t33.5 -78.5q0 -50 -29 -83.5t-74 -33.5q-27 0 -51.5 13t-39 28t-30.5 28t-28 13q-40 0 -76 -27q-53 -38 -53 -143v-432q0 -40 22 -57t76 -31l17 -4q16 -6 16 -19v-47l-4 -4q-164 4 -244 4l-237 -4l-4 4v47q0 14 14 19l20 4 q51 10 75 29t24 59v499q0 73 -11 99t-34 28l-84 9l-4 61q244 31 344 61q14 0 14 -6l-4 -129h4z" />
<glyph unicode="s" horiz-adv-x="821" d="M76 299l82 4q29 -136 79 -190t162 -54q48 0 84.5 34t36.5 100q0 62 -27 96.5t-108 62.5q-44 16 -88.5 41.5t-90.5 63t-75 90t-29 110.5q0 107 90.5 179.5t229.5 72.5q82 0 141 -13.5t121 -43.5q12 -88 23 -209l-80 -10q-30 103 -78.5 146.5t-120.5 43.5 q-46 0 -80.5 -29.5t-34.5 -86.5q0 -56 26 -91.5t87 -58.5q72 -26 125.5 -54.5t100.5 -66t71.5 -86t24.5 -106.5q0 -70 -32.5 -123t-86 -82.5t-113.5 -44t-123 -14.5q-46 0 -141.5 12.5t-151.5 11.5q0 113 -24 295z" />
<glyph unicode="t" horiz-adv-x="677" d="M408 793v-517q0 -63 8.5 -98t18.5 -43t26 -8q37 0 68 9.5t71 41.5l47 -47q-115 -151 -289 -151q-81 0 -128.5 50.5t-47.5 157.5v605h-104q-24 0 -30.5 3t-6.5 13v63q0 17 78 17q72 0 97.5 65t25.5 201l166 64v-330h194q27 0 36 -5t9 -16v-41q0 -34 -76 -34h-163z" />
<glyph unicode="u" horiz-adv-x="1126" d="M946 236q0 -53 27.5 -82t103.5 -33l2 -64q-87 -11 -146.5 -26t-83.5 -25.5t-58 -30.5h-70l6 97q-142 -92 -264 -92q-86 0 -144.5 23t-88 65.5t-41 88.5t-11.5 105v459q0 48 -12.5 71.5t-46.5 26.5l-64 4l-6 4v62l10 4q162 -4 228 -4l119 4q-3 -92 -3 -168v-434 q0 -61 11 -104.5t29 -65t35.5 -30.5t35.5 -9q119 0 207 76v563q0 98 -57 98l-64 4l-8 4v62l8 4q172 -4 227 -4l123 4q-4 -86 -4 -168v-489z" />
<glyph unicode="v" horiz-adv-x="1079" d="M887 721l-242 -637q-25 -64 -46 -86.5t-56 -22.5q-43 0 -70 23t-51 84l-236 602q-11 30 -21 49.5t-26.5 41t-41.5 33.5t-58 15q-21 0 -21 15v51l7 4q125 -4 206 -4l252 4l9 -4v-49q0 -17 -17 -17l-35 -4q-44 -6 -51.5 -24t10.5 -64l203 -516l184 518q15 40 -5 56.5 t-83 31.5l-8 2q-16 3 -16 15v49l8 6q129 -4 211 -4l158 4l4 -4v-47q0 -15 -23 -19q-54 -7 -89 -27.5t-56 -74.5z" />
<glyph unicode="w" horiz-adv-x="1593" d="M399 731l193 -526l145 362l-63 160q-21 51 -48.5 70.5t-76.5 25.5q-21 4 -21 15v51l7 4q127 -4 208 -4l250 4l8 -4v-49q0 -17 -18 -17l-35 -4q-46 -6 -53.5 -24.5t10.5 -63.5l191 -528l190 524q9 26 11 39t-9.5 23.5t-27.5 16t-58 15.5l-8 2q-16 3 -16 15v49l8 6 q139 -4 229 -4l139 4l5 -4v-47q0 -15 -23 -19q-62 -8 -93 -37t-54 -86l-256 -632q-18 -46 -39.5 -69.5t-55.5 -23.5q-30 0 -53 16t-33 32.5t-20 42.5l-150 383l-151 -377q-10 -23 -17 -36.5t-18.5 -29.5t-26 -23.5t-32.5 -7.5q-44 0 -67 21.5t-42 69.5l-242 618 q-26 69 -55 100.5t-92 38.5q-23 4 -23 15v51l7 4q133 -4 217 -4l219 4l8 -4v-49q0 -17 -23 -17q-43 -7 -52 -29t7 -63z" />
<glyph unicode="x" horiz-adv-x="1067" d="M375 150q-17 -24 -20.5 -40t7.5 -25t19.5 -12t28.5 -7q16 -5 16 -17v-49l-8 -4q-135 4 -223 4l-160 -4l-4 4v45q0 15 22 21q117 16 185 96l188 233q11 13 12 18.5t-6 12.5l-182 260q-95 137 -187 137q-20 0 -20 15v51l6 4q127 -4 207 -4l256 4l6 -4v-49q0 -17 -16 -17 q-61 -6 -69.5 -20.5t24.5 -65.5l98 -143q12 -17 17 -17.5t14 11.5l102 147q33 45 26.5 64.5t-61.5 23.5q-14 0 -14 15v49l6 6q146 -4 240 -4l139 4l4 -4v-47q0 -15 -22 -19q-117 -15 -185 -100l-182 -221q-9 -12 4 -31l180 -268q47 -71 89 -99t102 -38q20 -6 20 -15v-51 l-6 -4q-127 4 -207 4l-250 -4l-8 4v49q0 8 6 12.5t11 4.5q38 5 53 12t14.5 23t-20.5 46l-86 132q-25 43 -35.5 42t-44.5 -49z" />
<glyph unicode="y" horiz-adv-x="1091" d="M885 698l-340 -843q-30 -73 -58 -125.5t-67 -102.5t-88.5 -76t-108.5 -26q-27 0 -60 9t-64 36t-31 65q0 51 36 79t84 28q23 0 48.5 -16t37.5 -33q24 -35 39 -35q9 0 26 20t45.5 72t55.5 125l37 100l-289 713q-32 81 -60 108t-87 27q-21 0 -21 15v51l7 4q133 -4 217 -4 l248 4l8 -4v-49q0 -17 -17 -17q-60 0 -77 -22t2 -70l190 -516q125 303 188 512q32 96 -81 96q-17 0 -17 15v49l8 6q140 -4 230 -4l131 4l4 -4v-47q0 -8 -6.5 -13.5t-16.5 -5.5q-46 0 -87 -31.5t-66 -93.5z" />
<glyph unicode="z" horiz-adv-x="884" d="M201 913q9 -24 35 -24h417q22 0 46.5 1.5t41 3t17.5 1.5q32 0 52.5 -9t20.5 -24q0 -10 -40 -74l-457 -702h237q128 0 185 217l86 -18q-38 -136 -54 -285h-610q-112 0 -112 33q0 8 22 45l471 725h-237q-50 0 -85.5 -44.5t-60.5 -152.5l-88 12q39 160 45 295h68z" />
<glyph unicode="{" horiz-adv-x="626" d="M436 1155v-367q0 -129 -27 -186.5t-106 -93.5q32 -15 54.5 -32t37 -39.5t23 -43t12.5 -55t5 -61.5t1 -76v-334q0 -133 29 -182q42 -76 102 -88v-37q-237 6 -288 78q-64 86 -64 260v354q0 105 -29 168t-106 82v10q41 12 69 37t42 60.5t19 70.5t5 78v383q0 156 68 239 q60 72 284 78v-39q-65 -15 -104 -88q-27 -44 -27 -176z" />
<glyph unicode="|" horiz-adv-x="464" d="M301 -477h-135v1907h135v-1907z" />
<glyph unicode="}" horiz-adv-x="626" d="M193 -139v366q0 129 27 187t106 94q-32 15 -54.5 31.5t-37 39.5t-23 43t-12.5 55t-5 62t-1 76v334q0 129 -29 182q-42 76 -103 88v37q235 -6 289 -78q64 -86 64 -260v-354q0 -105 29 -168t106 -82v-10q-41 -12 -69 -37t-42 -61t-19 -70.5t-5 -77.5v-383q0 -155 -68 -240 q-59 -71 -285 -77v39q66 15 105 88q27 47 27 176z" />
<glyph unicode="~" horiz-adv-x="968" d="M53 430q22 106 103 187t186 81q92 0 174 -65q31 -27 68 -46.5t55 -19.5q59 0 103 32.5t79 115.5l74 -25q-23 -79 -54.5 -133t-68 -79.5t-69 -35.5t-70.5 -10q-100 0 -178 68q-33 27 -68 44t-57 17q-45 0 -107 -43t-96 -112z" />
<glyph unicode="&#xa1;" horiz-adv-x="499" d="M217 -467q-62 0 -104.5 40t-42.5 114q0 81 24 217q23 138 27 176q29 238 29 330l2 24q0 9 4 22.5t10.5 21t19.5 13t31 5.5q47 0 58.5 -24.5t13.5 -86.5q2 -63 24 -305q18 -133 27 -182q25 -129 25 -211q0 -79 -45.5 -116.5t-102.5 -37.5zM334 788q0 -47 -33.5 -80.5 t-81.5 -33.5q-47 0 -81 33.5t-34 80.5q0 46 34 79.5t81 33.5q48 0 81.5 -33t33.5 -80z" />
<glyph unicode="&#xa2;" horiz-adv-x="897" d="M455 1196h69v-141q148 -4 225.5 -65.5t77.5 -147.5q0 -50 -27 -82.5t-75 -32.5q-49 0 -80.5 27t-36.5 69q-13 121 -84 142v-734q8 -2 25 -2q58 0 110 30t117 103l41 -38q-43 -88 -119 -140t-174 -59v-150h-69v152q-195 10 -294.5 123t-99.5 307q0 200 113 337.5 t281 158.5v143zM455 256v707q-71 -24 -115.5 -117.5t-44.5 -237.5q0 -123 44 -217t116 -135z" />
<glyph unicode="&#xa3;" d="M328 184q75 0 127 -15t74.5 -33t56.5 -33t76 -15q106 0 172 88l63 -29q-29 -79 -98 -125.5t-172 -46.5q-50 0 -100 18.5t-85 41t-79 41t-82 18.5q-46 0 -60 -13.5t-14 -37.5q0 -38 -28 -60t-60 -22q-23 0 -44.5 17.5t-21.5 35.5q0 65 90 115q18 14 30 25t31 42.5t30 72 t19.5 112t8.5 164.5v16h-86q-32 0 -42.5 4.5t-10.5 16.5v28q0 18 21.5 32.5t68.5 14.5h49v39q0 131 39 217.5t117 161.5q112 103 291 103q29 0 62.5 -6.5t66 -29t32.5 -57.5q0 -40 -25 -65t-65 -25q-34 0 -75 41q-22 23 -40.5 34t-48.5 11q-65 0 -99 -77.5t-34 -208.5v-138 h193q59 0 59 -20v-39q0 -18 -28.5 -27.5t-63.5 -9.5h-160q-7 -257 -159 -377h4z" />
<glyph unicode="&#xa4;" d="M250 614q0 -106 66 -179t155 -73t155 73.5t66 176.5q0 106 -67.5 179t-149.5 73q-88 0 -156.5 -73t-68.5 -177zM471 250q-118 0 -207 49l-92 -117l-125 121l107 86q-86 107 -86 223q0 122 88 228q-66 48 -105 82l113 116l100 -110q92 49 207 49t209 -51q84 99 102 123 l119 -125l-110 -90q83 -102 83 -222q0 -109 -81 -219l104 -88l-111 -119l-102 117q-92 -53 -213 -53z" />
<glyph unicode="&#xa5;" d="M854 340v-80h-244v-102q0 -48 26 -69t87 -21h53q19 0 19 -19v-47l-4 -4q-218 4 -297 4l-301 -4l-5 4v47q0 19 17 19h53q61 0 87 22.5t26 67.5v102h-246v80h246v129h-246v82h233l-231 475q-21 45 -44.5 64.5t-62.5 19.5h-14q-18 6 -20 16v48l2 4q38 -7 225 -7q125 0 176 7 l4 -4v-46q0 -18 -12 -18h-29q-38 0 -42.5 -19.5t16.5 -60.5l206 -436l193 436q18 43 19.5 59t-7.5 19.5t-43 3.5h-32q-13 0 -13 14v48l4 4q59 -7 160 -7q119 0 186 7l2 -4v-46q0 -5 -0.5 -8t-5 -5.5t-12.5 -2.5h-12q-47 0 -76.5 -19.5t-48.5 -66.5l-211 -475h219v-82h-244 v-129h244z" />
<glyph unicode="&#xa6;" horiz-adv-x="419" d="M264 1380v-741h-98v741h98zM264 330v-742h-98v742h98z" />
<glyph unicode="&#xa7;" horiz-adv-x="954" d="M838 -53q0 -56 -21 -106t-64 -93t-119 -68.5t-177 -25.5q-76 0 -151.5 32.5t-127 93t-51.5 132.5q0 32 30 58t60 26q47 0 78 -33.5t31 -54.5q0 -25 -13.5 -49t-13.5 -33q0 -5 4.5 -15t16 -25t28 -28t44 -22.5t61.5 -9.5q72 0 115.5 53t43.5 153q0 30 -16.5 60t-37.5 52 t-58.5 48.5t-61.5 40.5l-67 37q-171 95 -240.5 184t-69.5 211q0 143 162 277q-92 74 -92 190q0 50 30.5 106t80 102.5t119 77t139.5 30.5q148 0 238.5 -72.5t90.5 -183.5q0 -34 -31 -60t-63 -26q-48 0 -75 32.5t-27 55.5q0 30 11 51t11 31q0 34 -38 67t-109 33 q-83 0 -123.5 -57.5t-40.5 -145.5q0 -66 37 -102.5t119 -75.5l68 -33l60 -32q39 -21 58 -34l51 -34q31 -21 47 -38l38 -42q21 -24 31.5 -48t21.5 -53t15.5 -62t4.5 -70q0 -147 -164 -279l-8 -2q115 -94 115 -221zM266 813q-17 -17 -26 -44t-10 -47t-1 -58q0 -42 12.5 -85.5 t41 -93t86 -98.5t137.5 -88q119 -57 174 -96q28 27 37.5 61.5t9.5 85.5q0 128 -96 232t-301 200q-36 19 -64 31z" />
<glyph unicode="&#xa8;" horiz-adv-x="817" d="M469 1174q0 46 32.5 78t78.5 32q45 0 77.5 -32.5t32.5 -77.5t-32.5 -77t-77.5 -32q-46 0 -78.5 32t-32.5 77zM98 1174q0 45 33 77.5t78 32.5q46 0 78 -32t32 -78q0 -45 -32 -77t-78 -32q-45 0 -78 32t-33 77z" />
<glyph unicode="&#xa9;" horiz-adv-x="1296" d="M895 444q-35 -54 -96.5 -92.5t-139.5 -38.5q-142 0 -233.5 94t-91.5 222q0 118 90.5 211.5t228.5 93.5q81 0 138.5 -14.5t82.5 -14.5l23 -160l-63 -8q-8 43 -14.5 63t-24.5 44t-52 33.5t-88 9.5q-32 0 -61 -11.5t-58.5 -38t-47 -81.5t-17.5 -131q0 -112 48 -182t147 -70 q113 0 184 102zM649 47q-118 0 -225.5 46t-185 124t-123 185.5t-45.5 224.5t46 224t123.5 184.5t184.5 123t225 45.5t225 -45.5t184.5 -123t123 -184t45.5 -224.5t-45.5 -225.5t-123 -185t-184.5 -123.5t-225 -46zM649 1126q-134 0 -248.5 -67.5t-180.5 -182.5t-66 -249 q0 -135 65.5 -250t180 -182.5t249.5 -67.5q134 0 248 67t180 182.5t66 250.5t-66 250t-180 182t-248 67z" />
<glyph unicode="&#xaa;" horiz-adv-x="608" d="M360 1026q-174 -50 -174 -143q0 -80 68 -80q16 0 28.5 5t19 10t26.5 24l32 30v154zM459 733q-44 0 -67.5 23.5t-29.5 56.5l-23 -21l-20 -18l-16 -13t-16 -11l-15 -8q-9 -4 -17 -5.5t-18.5 -2.5t-23.5 -1q-67 0 -112.5 39.5t-45.5 104.5q0 124 211 178l94 30q0 55 -6 89.5 t-19.5 50t-26.5 20t-34 4.5q-48 0 -67 -12.5t-19 -38.5q0 -19 5 -27q6 -6 6 -24q0 -14 -20.5 -28.5t-47.5 -14.5q-25 0 -45 14.5t-20 36.5q0 58 71.5 104t141.5 46q42 0 77 -10t68.5 -34t52.5 -72.5t19 -117.5v-143q0 -117 28 -117q13 0 25 8l20 -41q-51 -45 -110 -45z" />
<glyph unicode="&#xab;" horiz-adv-x="1146" d="M631 936v-184q-60 -91 -126 -158.5t-167 -151.5q93 -74 162.5 -143t130.5 -164v-190q-163 190 -280.5 298.5t-221.5 164.5v67q111 78 229 186t273 275zM993 936v-184q-62 -92 -129.5 -160.5t-165.5 -149.5q91 -70 161 -140.5t134 -166.5v-190q-163 191 -280.5 299 t-220.5 164v67q111 78 228 185.5t273 275.5z" />
<glyph unicode="&#xac;" horiz-adv-x="1146" d="M981 272v449h-932v100h1051v-549h-119z" />
<glyph unicode="&#xad;" horiz-adv-x="716" d="M586 477h-459q-35 0 -55.5 12.5t-20.5 30.5q0 27 31 54.5t63 27.5h463q74 0 74 -43q0 -22 -31.5 -52t-64.5 -30z" />
<glyph unicode="&#xae;" horiz-adv-x="1296" d="M866 762q0 -30 -12 -57t-29 -44.5t-34 -30.5t-29 -18l-12 -6l98 -168q36 -63 82 -63v-27q-28 -8 -47 -8q-103 0 -140 78l-98 160q-12 6 -55 6v-187q0 -9 2 -11.5t12 -2.5h25q22 0 22 -12v-29q-110 4 -139 4l-115 -4v29q0 12 23 12h24q10 0 13.5 3t3.5 13v447q0 22 -8 22 l-33 -2q-21 0 -21 13v26q72 10 273 10q54 0 94 -15t60.5 -39t30 -49t9.5 -50zM739 762q0 55 -21 83.5t-71 28.5q-42 0 -57 -6v-235q25 0 40.5 1t38.5 8t36.5 19.5t23.5 38.5t10 62zM649 47q-118 0 -225.5 46t-185 124t-123 185.5t-45.5 224.5t46 224t123.5 184.5t184.5 123 t225 45.5t225 -45.5t184.5 -123t123 -184t45.5 -224.5t-45.5 -225.5t-123 -185t-184.5 -123.5t-225 -46zM649 1126q-134 0 -248.5 -67.5t-180.5 -182.5t-66 -249q0 -135 65.5 -250t180 -182.5t249.5 -67.5q134 0 248 67t180 182.5t66 250.5t-66 250t-180 182t-248 67z" />
<glyph unicode="&#xaf;" horiz-adv-x="813" d="M645 1075h-500q-12 0 -18 11t-6 24q0 19 14 41.5t31 22.5h500q14 0 21 -11t7 -24q0 -19 -15 -41.5t-34 -22.5z" />
<glyph unicode="&#xb0;" horiz-adv-x="546" d="M403 1073q0 54 -34 97.5t-95 43.5q-60 0 -94.5 -42t-34.5 -99q0 -54 34.5 -94.5t94.5 -40.5q59 0 94 40.5t35 94.5zM70 1075q0 86 60 145.5t144 59.5q85 0 144 -59.5t59 -145.5q0 -84 -59 -143.5t-144 -59.5q-84 0 -144 59.5t-60 143.5z" />
<glyph unicode="&#xb1;" horiz-adv-x="1079" d="M627 725h350v-152h-350v-333h-152v333h-350v152h350v336h152v-336zM954 164v-152h-809v152h809z" />
<glyph unicode="&#xb2;" horiz-adv-x="679" d="M176 1174q-35 0 -57.5 22t-22.5 49q0 24 11.5 49t37.5 52t77 44t120 17q66 0 118 -14.5t89 -54.5t37 -103q0 -91 -123 -197q-122 -93 -162 -136.5t-45 -84.5h240q15 40 30 103l84 -21l-30 -162h-504q0 30 8.5 55.5t19.5 46t46 55.5l60 58l92 82q11 10 17 15 q49 42 71 84.5t22 97.5q0 59 -27.5 87t-52.5 28q-36 0 -59 -16.5t-23 -35.5q0 -16 2 -22q6 -30 6 -35q0 -27 -26.5 -45t-55.5 -18z" />
<glyph unicode="&#xb3;" horiz-adv-x="679" d="M389 1272q0 37 -20.5 55.5t-40.5 18.5q-25 0 -57 -17.5t-35 -46.5q0 -76 -76 -76q-23 0 -38 6.5t-21 17.5t-7.5 17.5t-1.5 12.5q0 13 6.5 29.5t24.5 38t45.5 39.5t75.5 30t108 12q99 0 153 -33.5t54 -93.5q0 -74 -100 -135q65 -18 109 -63.5t44 -118.5q0 -106 -94.5 -173 t-234.5 -67q-78 0 -143.5 20.5t-65.5 53.5q0 26 15.5 45.5t41.5 19.5q38 0 56 -11.5t30 -31.5q10 -15 35 -25t51 -10q14 0 35 7.5t46 24t42.5 51.5t17.5 81q0 38 -16 66t-40 41t-45 18.5t-38 5.5q-16 0 -84 -14l-6 55q72 10 123 50.5t51 99.5z" />
<glyph unicode="&#xb4;" horiz-adv-x="698" d="M383 1440q12 4 31 4q33 0 54.5 -8t39 -23t18.5 -16l21 -45l-238 -213q-30 -29 -71 -29q-13 0 -22 7.5t-9 17.5q0 26 12 47z" />
<glyph unicode="&#xb5;" horiz-adv-x="1062" d="M233 -475q-38 0 -87.5 41t-49.5 100q0 56 15 146q1 10 6 39t7 44.5t4.5 43t2.5 53.5q0 16 -3 52l-3 50q-2 14 -15.5 80.5t-13.5 106.5v381q0 23 -5.5 79.5t-10.5 102.5l-6 45l256 26q8 -147 8 -213v-395q0 -223 92 -223q60 0 118.5 34t94.5 83v688l240 29v-660 q0 -94 5 -133t19 -39q23 0 41 18t37 66l68 -27q-34 -87 -82.5 -127.5t-147.5 -40.5q-97 0 -147 113q-140 -113 -283 -113q-48 0 -94 19q6 -105 25 -191q24 -106 24 -147q0 -64 -31.5 -97.5t-83.5 -33.5z" />
<glyph unicode="&#xb6;" horiz-adv-x="1232" d="M1020 -295q0 -58 7.5 -84t23 -34t51.5 -9h59q13 0 13 -14v-43h-674v43q0 14 12 14h59q51 1 65.5 25t14.5 104v758q-50 -25 -157 -25q-55 0 -111 12.5t-116.5 45t-106.5 82t-75.5 132.5t-29.5 187q0 193 109 308.5t307 115.5q89 0 204 -5t130 -5l141 6l228 4v-43 q0 -14 -13 -14h-59q-53 0 -67.5 -26t-14.5 -101v-1434zM834 -424q41 0 53 28t12 99v1436q0 42 -4 68t-14 37t-18 14t-23 4q-19 0 -32.5 -8t-20 -18.5t-10.5 -30t-4.5 -34t-0.5 -38.5v-1426q0 -131 62 -131z" />
<glyph unicode="&#xb7;" horiz-adv-x="616" d="M309 391q-61 0 -100 41t-39 96t41.5 97.5t97.5 42.5q54 0 97 -41.5t43 -98.5q0 -55 -41 -96t-99 -41z" />
<glyph unicode="&#xb8;" horiz-adv-x="1107" d="M600 -164q-52 0 -92 -12l-12 12l79 178h70l-49 -118q24 6 53 6q63 0 104.5 -35t41.5 -92q0 -65 -62.5 -105.5t-157.5 -40.5q-70 0 -151 35l20 45q78 -28 119 -28q50 0 86.5 22t36.5 61q0 32 -25 52t-61 20z" />
<glyph unicode="&#xb9;" horiz-adv-x="679" d="M289 885v270q0 83 -31 92.5t-117 -26.5l-20 63q134 52 252 125h65v-524q0 -45 20.5 -67.5t67.5 -22.5h19q16 0 16 -17v-33l-4 -4q-117 4 -197 4l-188 -4l-4 4v33q0 17 16 17h17q49 0 68.5 22t19.5 68z" />
<glyph unicode="&#xba;" horiz-adv-x="714" d="M80 879q0 131 75 205.5t207 74.5q73 0 127.5 -22t86 -61t46.5 -85t15 -100q0 -113 -74 -191.5t-211 -78.5q-114 0 -193 74t-79 184zM350 1098q-70 0 -107.5 -57t-37.5 -142q0 -83 43.5 -148t124.5 -65q23 0 45.5 7.5t45 25.5t36.5 54t14 87q0 115 -44 176.5t-120 61.5z " />
<glyph unicode="&#xbb;" horiz-adv-x="1146" d="M426 -55v184q60 91 127 159t166 150q-93 72 -162 142t-131 165v191q163 -190 280.5 -298.5t221.5 -164.5v-67q-209 -145 -502 -461zM63 -55v184q63 92 131 161t164 148q-91 70 -161 140.5t-134 166.5v191q164 -191 281.5 -299t220.5 -164v-67q-111 -78 -229 -186 t-273 -275z" />
<glyph unicode="&#xbc;" horiz-adv-x="1351" d="M1090 1231l86 -17l-940 -1341l-84 16zM1231 322v-207h112l-6 -86h-106v-84q0 -30 9 -40.5t38 -10.5h33q8 0 8 -9v-51q-102 2 -168 2l-154 -2l9 51q0 9 8 9h30q29 0 38.5 9t9.5 40v86h-310l-24 24l321 455l76 -21l-256 -372h193v149q0 17 12 35q11 12 49.5 27.5t52.5 15.5 q25 0 25 -20zM283 784v271q0 82 -31 91.5t-117 -26.5l-20 64q139 54 252 125h65v-525q0 -45 20.5 -67.5t67.5 -22.5h19q16 0 16 -16v-33l-4 -4q-117 4 -197 4l-188 -4l-4 4v33q0 16 16 16h17q49 0 68.5 22t19.5 68z" />
<glyph unicode="&#xbd;" horiz-adv-x="1351" d="M1090 1231l86 -17l-940 -1341l-84 16zM909 266q-35 0 -57.5 22.5t-22.5 49.5q0 23 12 49t37.5 52.5t77 43.5t119.5 17q66 0 118 -14.5t89 -54.5t37 -103q0 -91 -123 -197q-122 -93 -162 -136.5t-45 -84.5h240q15 38 31 102l83 -20l-30 -162h-504q0 29 8.5 54.5t20 46.5 t45.5 55l62 60l92 81q11 9 16 14q48 43 70 85.5t22 97.5q0 59 -27.5 86.5t-52.5 27.5q-36 0 -59 -16t-23 -35q0 -16 2 -22q6 -33 6 -35q0 -27 -26.5 -45.5t-55.5 -18.5zM287 784v271q0 82 -31 91.5t-117 -26.5l-20 64q139 54 252 125h65v-525q0 -45 20.5 -67.5t67.5 -22.5 h19q16 0 16 -16v-33l-4 -4q-117 4 -197 4l-188 -4l-4 4v33q0 16 16 16h17q49 0 68.5 22t19.5 68z" />
<glyph unicode="&#xbe;" horiz-adv-x="1351" d="M1090 1231l86 -17l-940 -1341l-84 16zM385 1167q0 37 -20.5 55.5t-40.5 18.5q-25 0 -57.5 -17t-35.5 -46q0 -76 -75 -76q-23 0 -38 6.5t-21 17.5t-7.5 17t-1.5 12q0 13 6.5 30t24.5 38.5t45.5 39.5t75.5 30t108 12q99 0 153 -33.5t54 -93.5q0 -75 -100 -136 q65 -17 109 -63t44 -119q0 -106 -94.5 -172.5t-234.5 -66.5q-79 0 -144 20t-65 53q0 27 15.5 46.5t41.5 19.5t45 -8t26 -15t15 -20q10 -15 34.5 -25t51.5 -10q14 0 35 7.5t46 24t42.5 51.5t17.5 81q0 38 -16 65.5t-40 41t-45 19t-38 5.5t-84 -14l-6 55q72 10 123 50t51 99z M1239 326v-207h113l-6 -86h-107v-84q0 -30 9 -40.5t38 -10.5h33q8 0 8 -9v-51q-102 2 -168 2l-153 -2l8 51q0 9 8 9h31q29 0 38 9t9 40v86h-309l-25 24l321 455l76 -20l-256 -373h193v149q0 17 12 35q11 13 49.5 28t52.5 15q25 0 25 -20z" />
<glyph unicode="&#xbf;" horiz-adv-x="880" d="M571 -289q0 27 -16 56q-14 21 -14 55q0 37 36 58.5t85 21.5q43 0 80.5 -30.5t37.5 -84.5q0 -51 -26.5 -90t-83.5 -86q-97 -80 -281 -80q-174 0 -276.5 85.5t-102.5 227.5q0 44 15.5 85.5t35 71.5t56.5 65t60 53l65 49q27 20 44.5 36t38.5 44.5t31.5 69.5t10.5 94v47 q0 37 13.5 53t57.5 16q45 0 57.5 -15.5t12.5 -53.5v-51q0 -42 -3.5 -71t-16.5 -75t-45.5 -93.5t-84.5 -94.5q-57 -51 -82.5 -100.5t-25.5 -123.5q0 -96 46.5 -170.5t113.5 -74.5t114 31.5t47 74.5zM526 788q0 -47 -33.5 -80.5t-80.5 -33.5q-48 0 -81.5 33.5t-33.5 80.5 t33.5 80t81.5 33q47 0 80.5 -33t33.5 -80z" />
<glyph unicode="&#xc0;" horiz-adv-x="1431" d="M518 590h307l-170 463l-176 -439q0 -15 6.5 -19.5t32.5 -4.5zM303 162q-11 -30 -11.5 -51t24.5 -32t83 -11q25 0 34 -4.5t9 -16.5v-41l-10 -8q-188 4 -237 4l-175 -4l-16 6v43q0 10 6 15t12.5 5.5t22.5 0.5q35 0 74 30t63 88l457 1098q13 33 38.5 48.5t47.5 15.5 q68 0 92 -64l414 -1098q24 -61 48 -89.5t60 -28.5h58q21 0 25.5 -4t4.5 -17v-41l-10 -8q-196 4 -274 4l-295 -4l-17 10v39q0 21 54 21h55q51 0 51 53q0 22 -4 29l-127 344h-377q-32 0 -43 -4.5t-20 -24.5zM582 1675l247 -172q31 -22 31 -43q0 -30 -31 -30q-28 0 -88 24 l-315 129z" />
<glyph unicode="&#xc1;" horiz-adv-x="1431" d="M518 590h307l-170 463l-176 -439q0 -15 6.5 -19.5t32.5 -4.5zM303 162q-11 -30 -11.5 -51t24.5 -32t83 -11q25 0 34 -4.5t9 -16.5v-41l-10 -8q-188 4 -237 4l-175 -4l-16 6v43q0 10 6 15t12.5 5.5t22.5 0.5q35 0 74 30t63 88l457 1098q13 33 38.5 48.5t47.5 15.5 q68 0 92 -64l414 -1098q24 -61 48 -89.5t60 -28.5h58q21 0 25.5 -4t4.5 -17v-41l-10 -8q-196 4 -274 4l-295 -4l-17 10v39q0 21 54 21h55q51 0 51 53q0 22 -4 29l-127 344h-377q-32 0 -43 -4.5t-20 -24.5zM854 1679l127 -106l-295 -119q-57 -24 -88 -24q-29 0 -29 30 q0 22 31 43z" />
<glyph unicode="&#xc2;" horiz-adv-x="1431" d="M518 590h307l-170 463l-176 -439q0 -15 6.5 -19.5t32.5 -4.5zM303 162q-11 -30 -11.5 -51t24.5 -32t83 -11q25 0 34 -4.5t9 -16.5v-41l-10 -8q-188 4 -237 4l-175 -4l-16 6v43q0 10 6 15t12.5 5.5t22.5 0.5q35 0 74 30t63 88l457 1098q13 33 38.5 48.5t47.5 15.5 q68 0 92 -64l414 -1098q24 -61 48 -89.5t60 -28.5h58q21 0 25.5 -4t4.5 -17v-41l-10 -8q-196 4 -274 4l-295 -4l-17 10v39q0 21 54 21h55q51 0 51 53q0 22 -4 29l-127 344h-377q-32 0 -43 -4.5t-20 -24.5zM776 1649q87 -104 207 -193l-33 -43q-124 58 -217 127 q-104 -76 -219 -127l-29 43q90 68 203 193h88z" />
<glyph unicode="&#xc3;" horiz-adv-x="1431" d="M518 590h307l-170 463l-176 -439q0 -15 6.5 -19.5t32.5 -4.5zM303 162q-11 -30 -11.5 -51t24.5 -32t83 -11q25 0 34 -4.5t9 -16.5v-41l-10 -8q-188 4 -237 4l-175 -4l-16 6v43q0 10 6 15t12.5 5.5t22.5 0.5q35 0 74 30t63 88l457 1098q13 33 38.5 48.5t47.5 15.5 q68 0 92 -64l414 -1098q24 -61 48 -89.5t60 -28.5h58q21 0 25.5 -4t4.5 -17v-41l-10 -8q-196 4 -274 4l-295 -4l-17 10v39q0 21 54 21h55q51 0 51 53q0 22 -4 29l-127 344h-377q-32 0 -43 -4.5t-20 -24.5zM889 1532q36 0 56.5 22.5t41.5 92.5l53 -21q-18 -102 -63.5 -157.5 t-114.5 -55.5q-21 0 -46 10.5t-40 20t-43 29.5q-77 51 -112 51q-40 0 -60.5 -23t-36.5 -82l-51 17q21 104 59.5 156.5t102.5 52.5q28 0 57 -10.5t46 -22t44 -31.5q64 -49 107 -49z" />
<glyph unicode="&#xc4;" horiz-adv-x="1431" d="M518 590h307l-170 463l-176 -439q0 -15 6.5 -19.5t32.5 -4.5zM303 162q-11 -30 -11.5 -51t24.5 -32t83 -11q25 0 34 -4.5t9 -16.5v-41l-10 -8q-188 4 -237 4l-175 -4l-16 6v43q0 10 6 15t12.5 5.5t22.5 0.5q35 0 74 30t63 88l457 1098q13 33 38.5 48.5t47.5 15.5 q68 0 92 -64l414 -1098q24 -61 48 -89.5t60 -28.5h58q21 0 25.5 -4t4.5 -17v-41l-10 -8q-196 4 -274 4l-295 -4l-17 10v39q0 21 54 21h55q51 0 51 53q0 22 -4 29l-127 344h-377q-32 0 -43 -4.5t-20 -24.5zM887 1391q0 44 32 77t76 33q46 0 79.5 -33t33.5 -77 q0 -45 -33.5 -78t-79.5 -33q-44 0 -76 33t-32 78zM358 1391q0 45 33 77.5t78 32.5t77 -32.5t32 -77.5t-32 -78t-77 -33q-46 0 -78.5 33t-32.5 78z" />
<glyph unicode="&#xc5;" horiz-adv-x="1431" d="M733 1569q-42 0 -71 -31.5t-29 -75.5q0 -41 28.5 -72.5t71.5 -31.5q44 0 72.5 31.5t28.5 72.5q0 45 -29.5 76t-71.5 31zM559 1462q0 70 51 120t123 50q70 0 123 -49.5t53 -120.5q0 -50 -29 -92t-75 -63q4 -7 12 -23l414 -1098q24 -61 48 -89.5t60 -28.5h58q21 0 25.5 -4 t4.5 -17v-41l-10 -8q-196 4 -274 4l-295 -4l-17 10v39q0 21 54 21h55q51 0 51 53q0 22 -4 29l-127 344h-377q-32 0 -43 -4.5t-20 -24.5l-117 -303q-11 -30 -11.5 -51t24.5 -32t83 -11q25 0 34 -4.5t9 -16.5v-41l-10 -8q-188 4 -237 4l-175 -4l-16 6v43q0 10 6 15t12.5 5.5 t22.5 0.5q35 0 74 30t63 88l457 1098q5 12 16 27q-43 21 -69.5 62t-26.5 89zM518 590h307l-170 463l-176 -439q0 -15 6.5 -19.5t32.5 -4.5z" />
<glyph unicode="&#xc6;" horiz-adv-x="1863" d="M596 625h324v491q0 27 -7.5 39t-21.5 3.5t-31 -40.5zM1057 2l-316 -4l-4 4v45q0 21 17 21h55q61 0 86 22t25 68v387h-365l-217 -406q-23 -40 7.5 -55.5t92.5 -15.5q5 0 9 -4.5t4 -8.5v-53l-5 -4q-153 4 -233 4l-205 -4l-4 4v49q0 17 21 17h47q48 0 72 12.5t51 62.5 l530 1008q28 54 -1.5 79t-105.5 25q-16 0 -16 15v51l4 2h453h661q11 -144 43 -330l-82 -18q-10 38 -20 67t-28.5 67t-40.5 62.5t-55 42t-73 17.5h-266q-29 0 -29 -60v-421h234q32 0 45 32t24 106q1 5 1 7q0 7 9 15t23 8h43l13 -21q-15 -99 -15 -190q0 -86 15 -191l-13 -18 h-43q-14 0 -23 6.5t-9 13.5q-15 98 -29.5 122t-40.5 24h-234v-508q0 -60 29 -60h313q81 0 138.5 76t83.5 197l90 -21q-18 -84 -58 -346h-708z" />
<glyph unicode="&#xc7;" horiz-adv-x="1363" d="M733 -172q-52 0 -92 -12l-12 12l69 154q-124 8 -228.5 49.5t-177 105.5t-123.5 147t-75 174t-24 187q0 148 55 279.5t148.5 224t221 146t267.5 53.5q92 0 169 -14t117.5 -31.5t83.5 -31.5t76 -14q12 -161 45 -346l-77 -16q-22 66 -42.5 114t-55 99t-76 83t-103 52.5 t-137.5 20.5q-61 0 -120.5 -21t-115 -67t-97.5 -112t-67.5 -164t-25.5 -216q0 -112 26.5 -219t77 -196.5t133 -144t185.5 -54.5q129 0 243.5 56.5t229.5 186.5l61 -49q-212 -281 -524 -284l-39 -93q28 7 53 7q63 0 104.5 -35t41.5 -92q0 -66 -62 -106t-157 -40 q-74 0 -152 35l21 45q72 -26 101 -28q8 -1 17 -1q50 0 86.5 22.5t36.5 61.5q0 32 -25 52t-61 20z" />
<glyph unicode="&#xc8;" horiz-adv-x="1150" d="M55 0l-6 4v45q0 19 17 19h28q62 0 87.5 20.5t25.5 69.5v1007q0 49 -25.5 69.5t-87.5 20.5h-28q-7 0 -12 5t-5 12v47l6 4h955q12 -176 43 -332l-82 -18q-11 39 -20.5 67.5t-28.5 66.5t-40.5 62.5t-55 42t-72.5 17.5h-267q-28 0 -28 -60v-421h231q18 0 30.5 9.5t20.5 33.5 t11.5 43t9.5 59q0 7 9.5 14.5t23.5 7.5h43l12 -20q-14 -115 -14 -190q0 -69 14 -191l-12 -18h-43q-15 0 -24 6.5t-9 13.5q-6 40 -9.5 59.5t-11.5 43.5t-20.5 33.5t-30.5 9.5h-231v-508q0 -34 7 -47t21 -13h314q80 0 136.5 75.5t84.5 197.5l88 -21q-36 -192 -55 -346h-1000z M502 1673l248 -172q30 -22 30 -43q0 -31 -30 -31q-26 0 -88 25l-316 129z" />
<glyph unicode="&#xc9;" horiz-adv-x="1150" d="M55 0l-6 4v45q0 19 17 19h28q62 0 87.5 20.5t25.5 69.5v1007q0 49 -25.5 69.5t-87.5 20.5h-28q-7 0 -12 5t-5 12v47l6 4h955q12 -176 43 -332l-82 -18q-11 39 -20.5 67.5t-28.5 66.5t-40.5 62.5t-55 42t-72.5 17.5h-267q-28 0 -28 -60v-421h231q18 0 30.5 9.5t20.5 33.5 t11.5 43t9.5 59q0 7 9.5 14.5t23.5 7.5h43l12 -20q-14 -115 -14 -190q0 -69 14 -191l-12 -18h-43q-15 0 -24 6.5t-9 13.5q-6 40 -9.5 59.5t-11.5 43.5t-20.5 33.5t-30.5 9.5h-231v-508q0 -34 7 -47t21 -13h314q80 0 136.5 75.5t84.5 197.5l88 -21q-36 -192 -55 -346h-1000z M717 1679l127 -106l-295 -119q-57 -24 -88 -24q-29 0 -29 30q0 22 31 43z" />
<glyph unicode="&#xca;" horiz-adv-x="1150" d="M55 0l-6 4v45q0 19 17 19h28q62 0 87.5 20.5t25.5 69.5v1007q0 49 -25.5 69.5t-87.5 20.5h-28q-7 0 -12 5t-5 12v47l6 4h955q12 -176 43 -332l-82 -18q-11 39 -20.5 67.5t-28.5 66.5t-40.5 62.5t-55 42t-72.5 17.5h-267q-28 0 -28 -60v-421h231q18 0 30.5 9.5t20.5 33.5 t11.5 43t9.5 59q0 7 9.5 14.5t23.5 7.5h43l12 -20q-14 -115 -14 -190q0 -69 14 -191l-12 -18h-43q-15 0 -24 6.5t-9 13.5q-6 40 -9.5 59.5t-11.5 43.5t-20.5 33.5t-30.5 9.5h-231v-508q0 -34 7 -47t21 -13h314q80 0 136.5 75.5t84.5 197.5l88 -21q-36 -192 -55 -346h-1000z M649 1649q87 -104 207 -193l-33 -43q-124 58 -217 127q-104 -76 -219 -127l-29 43q90 68 203 193h88z" />
<glyph unicode="&#xcb;" horiz-adv-x="1150" d="M55 0l-6 4v45q0 19 17 19h28q62 0 87.5 20.5t25.5 69.5v1007q0 49 -25.5 69.5t-87.5 20.5h-28q-7 0 -12 5t-5 12v47l6 4h955q12 -176 43 -332l-82 -18q-11 39 -20.5 67.5t-28.5 66.5t-40.5 62.5t-55 42t-72.5 17.5h-267q-28 0 -28 -60v-421h231q18 0 30.5 9.5t20.5 33.5 t11.5 43t9.5 59q0 7 9.5 14.5t23.5 7.5h43l12 -20q-14 -115 -14 -190q0 -69 14 -191l-12 -18h-43q-15 0 -24 6.5t-9 13.5q-6 40 -9.5 59.5t-11.5 43.5t-20.5 33.5t-30.5 9.5h-231v-508q0 -34 7 -47t21 -13h314q80 0 136.5 75.5t84.5 197.5l88 -21q-36 -192 -55 -346h-1000z M672 1530q0 46 32 78t78 32q45 0 78 -32.5t33 -77.5t-33 -77t-78 -32q-46 0 -78 32t-32 77zM287 1530q0 46 32 78t78 32t77.5 -32t31.5 -78q0 -45 -31.5 -77t-77.5 -32t-78 32t-32 77z" />
<glyph unicode="&#xcc;" horiz-adv-x="653" d="M453 156q0 -45 25.5 -67.5t86.5 -22.5h29q16 0 16 -19v-47l-4 -4q-205 4 -278 4l-279 -4l-4 4v47q0 19 16 19h29q62 0 87.5 20.5t25.5 69.5v1009q0 49 -25.5 69.5t-87.5 20.5h-29q-6 0 -11 5t-5 12v49l4 4q199 -4 279 -4l278 4l4 -4v-49q0 -17 -16 -17h-29 q-61 0 -86.5 -22.5t-25.5 -67.5v-1009zM203 1673l248 -172q30 -22 30 -43q0 -31 -30 -31q-25 0 -89 25l-315 129z" />
<glyph unicode="&#xcd;" horiz-adv-x="653" d="M453 156q0 -45 25.5 -67.5t86.5 -22.5h29q16 0 16 -19v-47l-4 -4q-205 4 -278 4l-279 -4l-4 4v47q0 19 16 19h29q62 0 87.5 20.5t25.5 69.5v1009q0 49 -25.5 69.5t-87.5 20.5h-29q-6 0 -11 5t-5 12v49l4 4q199 -4 279 -4l278 4l4 -4v-49q0 -17 -16 -17h-29 q-61 0 -86.5 -22.5t-25.5 -67.5v-1009zM430 1677l127 -106l-295 -119q-60 -25 -88 -25q-29 0 -29 31q0 22 31 43z" />
<glyph unicode="&#xce;" horiz-adv-x="653" d="M453 156q0 -45 25.5 -67.5t86.5 -22.5h29q16 0 16 -19v-47l-4 -4q-205 4 -278 4l-279 -4l-4 4v47q0 19 16 19h29q62 0 87.5 20.5t25.5 69.5v1009q0 49 -25.5 69.5t-87.5 20.5h-29q-6 0 -11 5t-5 12v49l4 4q199 -4 279 -4l278 4l4 -4v-49q0 -17 -16 -17h-29 q-61 0 -86.5 -22.5t-25.5 -67.5v-1009zM342 1649q83 -101 207 -193l-33 -43q-124 58 -217 127q-104 -76 -219 -127l-29 43q84 63 203 193h88z" />
<glyph unicode="&#xcf;" horiz-adv-x="653" d="M453 156q0 -45 25.5 -67.5t86.5 -22.5h29q16 0 16 -19v-47l-4 -4q-205 4 -278 4l-279 -4l-4 4v47q0 19 16 19h29q62 0 87.5 20.5t25.5 69.5v1009q0 49 -25.5 69.5t-87.5 20.5h-29q-6 0 -11 5t-5 12v49l4 4q199 -4 279 -4l278 4l4 -4v-49q0 -17 -16 -17h-29 q-61 0 -86.5 -22.5t-25.5 -67.5v-1009zM383 1528q0 46 32.5 78t78.5 32q45 0 77.5 -32.5t32.5 -77.5t-32.5 -77t-77.5 -32q-46 0 -78.5 32t-32.5 77zM-2 1528q0 46 32.5 78t78.5 32t77 -32t31 -78q0 -45 -31.5 -77t-76.5 -32q-46 0 -78.5 32t-32.5 77z" />
<glyph unicode="&#xd0;" horiz-adv-x="1470" d="M453 154q0 -32 11.5 -46t48 -20t118.5 -6q84 0 152.5 13t133.5 47.5t109.5 89.5t71 144t26.5 206q0 97 -17.5 187.5t-58.5 177.5t-102 151.5t-155 103.5t-211 39q-65 0 -96 -13.5t-31 -58.5v-487h137v-94h-137v-434zM49 0l-4 4v45q0 19 16 19h29q62 0 87.5 20.5 t25.5 69.5v430h-168v94h168v483q0 49 -25.5 69.5t-87.5 20.5h-29q-6 0 -11 5t-5 12v47l4 4h606q204 0 374.5 -93t268 -251.5t97.5 -345.5q0 -145 -44.5 -258.5t-114.5 -182.5t-165.5 -113.5t-187.5 -61.5t-191 -17h-643z" />
<glyph unicode="&#xd1;" horiz-adv-x="1454" d="M1118 1165q0 49 -25 69.5t-85 20.5h-29q-18 0 -18 17v49l4 2q139 -2 219 -2l219 2l4 -2v-49q0 -17 -16 -17h-29q-61 0 -87 -22.5t-26 -67.5v-1114q0 -76 -78 -76q-24 0 -43.5 9.5t-29 19t-23.5 27.5l-717 932v-807q0 -45 26 -67.5t87 -22.5h29q16 0 16 -19v-47l-4 -4 q-150 4 -221 4l-232 -4l-4 4v47q0 19 17 19h28q129 0 129 90v991q-24 34 -39.5 52.5t-44 37t-59.5 18.5q-24 0 -32.5 5.5t-8.5 17.5v39l6 6h297l770 -979v821zM879 1528q36 0 56.5 22.5t41.5 91.5l53 -20q-18 -102 -63.5 -157.5t-114.5 -55.5q-21 0 -46.5 10.5t-39 19 t-43.5 29.5q-75 52 -113 52q-39 0 -59.5 -23.5t-36.5 -81.5l-51 17q20 103 59 155.5t103 52.5q41 0 74 -16.5t73 -46.5q64 -49 107 -49z" />
<glyph unicode="&#xd2;" horiz-adv-x="1495" d="M719 1264q-54 0 -106 -21t-101 -67.5t-86 -114t-59.5 -168t-22.5 -221.5q0 -141 35 -257t95.5 -192.5t140.5 -118t171 -41.5q159 0 262 155.5t103 416.5q0 151 -35 273t-95 198.5t-137 117t-165 40.5zM1421 674q0 -204 -82 -361t-236 -245t-358 -88q-187 0 -338 78.5 t-241 229.5t-90 349q0 199 85 361t238 256t344 94q136 0 259 -48.5t216 -135t148 -214t55 -276.5zM623 1677l247 -172q31 -22 31 -43q0 -30 -31 -30q-28 0 -88 24l-315 129z" />
<glyph unicode="&#xd3;" horiz-adv-x="1495" d="M719 1264q-54 0 -106 -21t-101 -67.5t-86 -114t-59.5 -168t-22.5 -221.5q0 -141 35 -257t95.5 -192.5t140.5 -118t171 -41.5q159 0 262 155.5t103 416.5q0 151 -35 273t-95 198.5t-137 117t-165 40.5zM1421 674q0 -204 -82 -361t-236 -245t-358 -88q-187 0 -338 78.5 t-241 229.5t-90 349q0 199 85 361t238 256t344 94q136 0 259 -48.5t216 -135t148 -214t55 -276.5zM793 1679l127 -106l-295 -119q-57 -24 -88 -24q-29 0 -29 30q0 22 31 43z" />
<glyph unicode="&#xd4;" horiz-adv-x="1495" d="M719 1264q-54 0 -106 -21t-101 -67.5t-86 -114t-59.5 -168t-22.5 -221.5q0 -141 35 -257t95.5 -192.5t140.5 -118t171 -41.5q159 0 262 155.5t103 416.5q0 151 -35 273t-95 198.5t-137 117t-165 40.5zM1421 674q0 -204 -82 -361t-236 -245t-358 -88q-187 0 -338 78.5 t-241 229.5t-90 349q0 199 85 361t238 256t344 94q136 0 259 -48.5t216 -135t148 -214t55 -276.5zM754 1649q83 -101 207 -193l-33 -43q-128 59 -217 127q-102 -74 -219 -127l-29 43q84 63 203 193h88z" />
<glyph unicode="&#xd5;" horiz-adv-x="1495" d="M719 1264q-54 0 -106 -21t-101 -67.5t-86 -114t-59.5 -168t-22.5 -221.5q0 -141 35 -257t95.5 -192.5t140.5 -118t171 -41.5q159 0 262 155.5t103 416.5q0 151 -35 273t-95 198.5t-137 117t-165 40.5zM1421 674q0 -204 -82 -361t-236 -245t-358 -88q-187 0 -338 78.5 t-241 229.5t-90 349q0 199 85 361t238 256t344 94q136 0 259 -48.5t216 -135t148 -214t55 -276.5zM864 1528q36 0 57 22.5t42 91.5l53 -20q-19 -102 -64 -157.5t-114 -55.5q-21 0 -46.5 10.5t-39 19t-43.5 29.5q-75 52 -113 52q-39 0 -60 -23.5t-36 -81.5l-51 17 q20 104 58.5 156t102.5 52q41 0 74.5 -16.5t73.5 -46.5q64 -49 106 -49z" />
<glyph unicode="&#xd6;" horiz-adv-x="1495" d="M719 1264q-54 0 -106 -21t-101 -67.5t-86 -114t-59.5 -168t-22.5 -221.5q0 -141 35 -257t95.5 -192.5t140.5 -118t171 -41.5q159 0 262 155.5t103 416.5q0 151 -35 273t-95 198.5t-137 117t-165 40.5zM1421 674q0 -204 -82 -361t-236 -245t-358 -88q-187 0 -338 78.5 t-241 229.5t-90 349q0 199 85 361t238 256t344 94q136 0 259 -48.5t216 -135t148 -214t55 -276.5zM1122 1391q0 45 32.5 77.5t78.5 32.5q44 0 77 -33t33 -77q0 -45 -33 -78t-77 -33q-46 0 -78.5 33t-32.5 78zM160 1391q0 44 32 77t76 33q47 0 79 -32.5t32 -77.5 q0 -46 -32 -78.5t-79 -32.5q-44 0 -76 33t-32 78z" />
<glyph unicode="&#xd7;" horiz-adv-x="1079" d="M627 475l245 -248l-88 -86l-247 242l-242 -242l-84 86l242 238l-242 244l90 96l244 -246l237 246l90 -86z" />
<glyph unicode="&#xd8;" horiz-adv-x="1495" d="M180 -92l-74 63l156 193q-186 181 -186 473q0 199 85 361t238 256t344 94q214 0 390 -115l112 139l76 -59l-113 -139q100 -92 156.5 -220t56.5 -280q0 -204 -82 -361t-236 -245t-358 -88q-232 0 -407 122zM719 1264q-54 0 -106 -21t-101 -67.5t-86 -114t-59.5 -168 t-22.5 -221.5q0 -189 62 -332l618 762q-58 79 -137 120.5t-168 41.5zM1077 1012l-620 -764q62 -89 146.5 -137t182.5 -48q159 0 262 155.5t103 416.5q0 224 -74 377z" />
<glyph unicode="&#xd9;" horiz-adv-x="1388" d="M1067 1165q0 49 -26 69.5t-87 20.5h-28q-19 0 -19 17v49l4 2q150 -2 230 -2l229 2l4 -2v-49q0 -17 -16 -17h-29q-61 0 -86.5 -22.5t-25.5 -67.5v-561q0 -83 -5.5 -149.5t-21 -133t-40.5 -116.5t-66 -93.5t-96 -71.5t-131.5 -44t-172.5 -16q-64 0 -130 14.5t-136 51.5 t-123.5 92.5t-88 145t-34.5 201.5v680q0 49 -25.5 69.5t-85.5 20.5h-28q-8 0 -13.5 5t-5.5 12v49l4 2q199 -2 281 -2l276 2l5 -2v-49q0 -17 -17 -17h-28q-61 0 -86 -22t-25 -68v-612q0 -69 2 -107.5t9.5 -98t28.5 -104.5t54 -79q104 -101 209 -101q63 0 113.5 17t85.5 44.5 t61 68.5t41 83.5t24 96t12 98.5t3 98v596zM567 1675l248 -172q31 -22 31 -43q0 -30 -31 -30q-28 0 -88 24l-315 129z" />
<glyph unicode="&#xda;" horiz-adv-x="1388" d="M1067 1165q0 49 -26 69.5t-87 20.5h-28q-19 0 -19 17v49l4 2q150 -2 230 -2l229 2l4 -2v-49q0 -17 -16 -17h-29q-61 0 -86.5 -22.5t-25.5 -67.5v-561q0 -83 -5.5 -149.5t-21 -133t-40.5 -116.5t-66 -93.5t-96 -71.5t-131.5 -44t-172.5 -16q-64 0 -130 14.5t-136 51.5 t-123.5 92.5t-88 145t-34.5 201.5v680q0 49 -25.5 69.5t-85.5 20.5h-28q-8 0 -13.5 5t-5.5 12v49l4 2q199 -2 281 -2l276 2l5 -2v-49q0 -17 -17 -17h-28q-61 0 -86 -22t-25 -68v-612q0 -69 2 -107.5t9.5 -98t28.5 -104.5t54 -79q104 -101 209 -101q63 0 113.5 17t85.5 44.5 t61 68.5t41 83.5t24 96t12 98.5t3 98v596zM831 1677l127 -106l-294 -119q-60 -25 -89 -25q-28 0 -28 31q0 22 31 43z" />
<glyph unicode="&#xdb;" horiz-adv-x="1388" d="M1067 1165q0 49 -26 69.5t-87 20.5h-28q-19 0 -19 17v49l4 2q150 -2 230 -2l229 2l4 -2v-49q0 -17 -16 -17h-29q-61 0 -86.5 -22.5t-25.5 -67.5v-561q0 -83 -5.5 -149.5t-21 -133t-40.5 -116.5t-66 -93.5t-96 -71.5t-131.5 -44t-172.5 -16q-64 0 -130 14.5t-136 51.5 t-123.5 92.5t-88 145t-34.5 201.5v680q0 49 -25.5 69.5t-85.5 20.5h-28q-8 0 -13.5 5t-5.5 12v49l4 2q199 -2 281 -2l276 2l5 -2v-49q0 -17 -17 -17h-28q-61 0 -86 -22t-25 -68v-612q0 -69 2 -107.5t9.5 -98t28.5 -104.5t54 -79q104 -101 209 -101q63 0 113.5 17t85.5 44.5 t61 68.5t41 83.5t24 96t12 98.5t3 98v596zM760 1649q83 -101 207 -193l-33 -43q-128 59 -217 127q-102 -74 -219 -127l-29 43q84 63 203 193h88z" />
<glyph unicode="&#xdc;" horiz-adv-x="1388" d="M477 1391q0 45 32.5 77.5t78.5 32.5q44 0 77 -33t33 -77q0 -45 -33 -78t-77 -33q-46 0 -78.5 33t-32.5 78zM768 1391q0 44 33 77t78 33t77.5 -32.5t32.5 -77.5t-32.5 -78t-77.5 -33t-78 33t-33 78zM424 1165v-616v-14q0 -62 2.5 -103.5t10.5 -96.5t28.5 -98.5t52.5 -76.5 q104 -101 209 -101q63 0 113.5 17t85.5 44.5t61 68.5t41 83.5t24 96t12 98.5t3 98v600q0 44 -13 67t-28 23q-20 0 -31 7.5t-4 19.5l25 39l4 4q41 -4 121 -4l229 4l4 -4v-49q0 -17 -16 -17h-29q-62 0 -87 -21t-25 -69v-565q0 -83 -5.5 -149.5t-21 -133t-40.5 -116.5t-66 -94 t-96 -72t-131.5 -44t-172.5 -16q-64 0 -130 14.5t-136 52t-123.5 93t-88 145t-34.5 201.5v684q0 50 -25 70t-86 20h-28q-8 0 -13.5 5t-5.5 12v49l4 4q199 -4 281 -4l143 4l4 -4l15 -35q15 -31 -17 -31q-20 0 -20 -90z" />
<glyph unicode="&#xdd;" horiz-adv-x="1263" d="M520 147v428l-321 558q-49 81 -77.5 101.5t-74.5 20.5h-24q-23 0 -23 15v51l4 4q234 -4 260 -4l234 4l4 -4v-49q0 -17 -15 -17q-42 0 -63 -2t-32.5 -10.5t-8 -22.5t19.5 -40l285 -496l262 496q17 31 -8 53t-80 22q-12 0 -12 15v51l4 4q162 -4 186 -4l220 4l4 -4v-49 q0 -17 -21 -17h-43q-47 0 -73 -16t-52 -63l-305 -576v-453q0 -46 25.5 -62.5t87.5 -16.5h55q16 0 16 -19v-47l-4 -4q-223 4 -303 4l-305 -4l-2 4v47q0 19 14 19h56q62 0 86 18t24 61zM737 1679l127 -106l-295 -119q-57 -24 -88 -24q-28 0 -28 30q0 22 30 43z" />
<glyph unicode="&#xde;" horiz-adv-x="1200" d="M453 977v-590q36 -8 145 -8q60 0 107 14t89 48t64.5 100t22.5 161q0 302 -246 302q-61 0 -182 -27zM328 2l-279 -4l-4 4v47q0 19 16 19h29q62 0 87.5 20.5t25.5 69.5v1007q0 49 -25.5 69.5t-87.5 20.5h-29q-6 0 -11 5t-5 12v49l4 2q205 -2 285 -2l297 2l4 -2v-49 q0 -17 -17 -17h-53q-61 0 -86.5 -21.5t-25.5 -66.5v-100q75 4 206 4q109 0 194 -24.5t136 -63t84 -89t45 -97.5t12 -95t-16.5 -100t-55 -105t-94 -95t-141.5 -68.5t-190 -26.5q-143 0 -180 15v-164q0 -48 25.5 -69t86.5 -21h53q19 0 19 -19v-47l-4 -4q-225 4 -305 4z" />
<glyph unicode="&#xdf;" horiz-adv-x="1187" d="M188 987q0 96 35 174.5t88.5 127t120 81.5t126.5 46.5t112 13.5q149 0 244.5 -73t95.5 -155q0 -29 -7.5 -57t-16.5 -49.5t-32 -49.5l-34 -42q-13 -15 -46.5 -43l-47.5 -39l-54 -40l-51 -40v-4q142 -95 183 -127q189 -149 211 -310q3 -23 3 -47q0 -159 -103.5 -266.5 t-246.5 -107.5q-61 0 -106 19t-69.5 50.5t-36 66t-11.5 70.5q0 24 25 53t48 29q33 0 58.5 -19t25.5 -48q0 -17 -12 -45.5t-12 -46.5q0 -56 90 -56q100 0 100 266q0 141 -70.5 266.5t-201.5 225.5v27q102 79 140 152t38 186q0 93 -23.5 135.5t-99.5 42.5q-62 0 -106.5 -25.5 t-69 -64t-39 -100t-18.5 -117.5t-4 -132v-729q0 -104 90 -120q16 -6 16 -19v-47l-4 -4q-139 4 -219 4l-248 -4l-4 4v47q0 14 16 19l39 4q52 6 70 24.5t18 63.5v618q0 20 -5 26.5t-25 6.5h-90q-8 0 -10.5 2t-2.5 8v29q0 15 12 28t35 13q86 0 86 98z" />
<glyph unicode="&#xe0;" horiz-adv-x="974" d="M575 98q-135 -118 -256 -118q-130 0 -187.5 53t-57.5 162q0 47 17.5 86t46.5 67.5t76.5 53.5t97 43t118.5 38l148 43q0 76 -7 131.5t-18.5 88.5t-30.5 52.5t-39.5 26t-48.5 6.5q-61 0 -103 -19t-42 -52q0 -23 6 -50.5t6 -37.5q0 -24 -33 -51t-73 -27q-53 0 -75 22t-22 64 q0 58 60 112.5t144.5 85.5t160.5 31q70 0 124.5 -14.5t105 -51t78.5 -109.5t28 -179v-297q0 -35 1 -54.5t5 -45.5t12.5 -39.5t24.5 -23t39 -9.5q21 0 34 8t19 16.5t10 8.5q6 0 16.5 -15.5t10.5 -25.5q0 -7 -23 -29.5t-70 -45.5t-98 -23q-89 0 -135 28.5t-65 89.5h-5z M578 174v275l-117 -35q-101 -30 -136.5 -74.5t-35.5 -114.5q0 -133 129 -133q26 0 72 24.5t88 57.5zM442 1374l136 -244q12 -21 12 -51q0 -13 -10.5 -22.5t-24.5 -9.5q-18 0 -61 38l-240 207l4 23q72 63 143 63q25 0 41 -4z" />
<glyph unicode="&#xe1;" horiz-adv-x="974" d="M575 98q-135 -118 -256 -118q-130 0 -187.5 53t-57.5 162q0 47 17.5 86t46.5 67.5t76.5 53.5t97 43t118.5 38l148 43q0 76 -7 131.5t-18.5 88.5t-30.5 52.5t-39.5 26t-48.5 6.5q-61 0 -103 -19t-42 -52q0 -23 6 -50.5t6 -37.5q0 -24 -33 -51t-73 -27q-53 0 -75 22t-22 64 q0 58 60 112.5t144.5 85.5t160.5 31q70 0 124.5 -14.5t105 -51t78.5 -109.5t28 -179v-297q0 -35 1 -54.5t5 -45.5t12.5 -39.5t24.5 -23t39 -9.5q21 0 34 8t19 16.5t10 8.5q6 0 16.5 -15.5t10.5 -25.5q0 -7 -23 -29.5t-70 -45.5t-98 -23q-89 0 -135 28.5t-65 89.5h-5z M578 174v275l-117 -35q-101 -30 -136.5 -74.5t-35.5 -114.5q0 -133 129 -133q26 0 72 24.5t88 57.5zM524 1374q12 4 31 4q33 0 55 -8t38.5 -23t19.5 -16l20 -45l-237 -213q-33 -29 -72 -29q-12 0 -21.5 8t-9.5 17q0 27 12 47z" />
<glyph unicode="&#xe2;" horiz-adv-x="974" d="M575 98q-135 -118 -256 -118q-130 0 -187.5 53t-57.5 162q0 47 17.5 86t46.5 67.5t76.5 53.5t97 43t118.5 38l148 43q0 76 -7 131.5t-18.5 88.5t-30.5 52.5t-39.5 26t-48.5 6.5q-61 0 -103 -19t-42 -52q0 -23 6 -50.5t6 -37.5q0 -24 -33 -51t-73 -27q-53 0 -75 22t-22 64 q0 58 60 112.5t144.5 85.5t160.5 31q70 0 124.5 -14.5t105 -51t78.5 -109.5t28 -179v-297q0 -35 1 -54.5t5 -45.5t12.5 -39.5t24.5 -23t39 -9.5q21 0 34 8t19 16.5t10 8.5q6 0 16.5 -15.5t10.5 -25.5q0 -7 -23 -29.5t-70 -45.5t-98 -23q-89 0 -135 28.5t-65 89.5h-5z M578 174v275l-117 -35q-101 -30 -136.5 -74.5t-35.5 -114.5q0 -133 129 -133q26 0 72 24.5t88 57.5zM516 1323q67 -109 207 -264l-49 -37q-71 43 -117 78t-94 86q-52 -53 -95 -86t-114 -78l-49 37q154 178 209 264h102z" />
<glyph unicode="&#xe3;" horiz-adv-x="974" d="M575 98q-135 -118 -256 -118q-130 0 -187.5 53t-57.5 162q0 47 17.5 86t46.5 67.5t76.5 53.5t97 43t118.5 38l148 43q0 76 -7 131.5t-18.5 88.5t-30.5 52.5t-39.5 26t-48.5 6.5q-61 0 -103 -19t-42 -52q0 -23 6 -50.5t6 -37.5q0 -24 -33 -51t-73 -27q-53 0 -75 22t-22 64 q0 58 60 112.5t144.5 85.5t160.5 31q70 0 124.5 -14.5t105 -51t78.5 -109.5t28 -179v-297q0 -35 1 -54.5t5 -45.5t12.5 -39.5t24.5 -23t39 -9.5q21 0 34 8t19 16.5t10 8.5q6 0 16.5 -15.5t10.5 -25.5q0 -7 -23 -29.5t-70 -45.5t-98 -23q-89 0 -135 28.5t-65 89.5h-5z M578 174v275l-117 -35q-101 -30 -136.5 -74.5t-35.5 -114.5q0 -133 129 -133q26 0 72 24.5t88 57.5zM604 1176q36 0 57 22.5t41 91.5l54 -20q-19 -102 -64 -157.5t-114 -55.5q-48 0 -129 59q-74 51 -113 51t-60 -23t-36 -81l-52 16q21 104 59.5 156.5t102.5 52.5 q29 0 58.5 -11t45.5 -21.5t44 -30.5q62 -49 106 -49z" />
<glyph unicode="&#xe4;" horiz-adv-x="974" d="M575 98q-135 -118 -256 -118q-130 0 -187.5 53t-57.5 162q0 47 17.5 86t46.5 67.5t76.5 53.5t97 43t118.5 38l148 43q0 76 -7 131.5t-18.5 88.5t-30.5 52.5t-39.5 26t-48.5 6.5q-61 0 -103 -19t-42 -52q0 -23 6 -50.5t6 -37.5q0 -24 -33 -51t-73 -27q-53 0 -75 22t-22 64 q0 58 60 112.5t144.5 85.5t160.5 31q70 0 124.5 -14.5t105 -51t78.5 -109.5t28 -179v-297q0 -35 1 -54.5t5 -45.5t12.5 -39.5t24.5 -23t39 -9.5q21 0 34 8t19 16.5t10 8.5q6 0 16.5 -15.5t10.5 -25.5q0 -7 -23 -29.5t-70 -45.5t-98 -23q-89 0 -135 28.5t-65 89.5h-5z M578 174v275l-117 -35q-101 -30 -136.5 -74.5t-35.5 -114.5q0 -133 129 -133q26 0 72 24.5t88 57.5zM537 1169q0 46 32 78.5t78 32.5q45 0 78 -32.5t33 -78.5q0 -44 -33 -76t-78 -32q-46 0 -78 32t-32 76zM166 1169q0 46 32.5 78.5t77.5 32.5q46 0 78.5 -32t32.5 -79 q0 -44 -32.5 -76t-78.5 -32q-44 0 -77 32t-33 76z" />
<glyph unicode="&#xe5;" horiz-adv-x="974" d="M575 98q-135 -118 -256 -118q-130 0 -187.5 53t-57.5 162q0 47 17.5 86t46.5 67.5t76.5 53.5t97 43t118.5 38l148 43q0 76 -7 131.5t-18.5 88.5t-30.5 52.5t-39.5 26t-48.5 6.5q-61 0 -103 -19t-42 -52q0 -23 6 -50.5t6 -37.5q0 -24 -33 -51t-73 -27q-53 0 -75 22t-22 64 q0 58 60 112.5t144.5 85.5t160.5 31q70 0 124.5 -14.5t105 -51t78.5 -109.5t28 -179v-297q0 -35 1 -54.5t5 -45.5t12.5 -39.5t24.5 -23t39 -9.5q21 0 34 8t19 16.5t10 8.5q6 0 16.5 -15.5t10.5 -25.5q0 -7 -23 -29.5t-70 -45.5t-98 -23q-89 0 -135 28.5t-65 89.5h-5z M578 174v275l-117 -35q-101 -30 -136.5 -74.5t-35.5 -114.5q0 -133 129 -133q26 0 72 24.5t88 57.5zM455 1298q-43 0 -72 -31.5t-29 -74.5q0 -41 29 -73t72 -32t71.5 32t28.5 73q0 44 -29.5 75t-70.5 31zM281 1192q0 71 50.5 120.5t123.5 49.5q70 0 123 -49.5t53 -120.5 q0 -69 -52 -119.5t-124 -50.5q-71 0 -122.5 50t-51.5 120z" />
<glyph unicode="&#xe6;" horiz-adv-x="1464" d="M1036 817q-78 0 -132 -80t-68 -205q175 12 257.5 47.5t82.5 114.5q0 57 -41 90t-99 33zM590 211q23 71 26 217q-142 -18 -224.5 -74t-82.5 -127q0 -62 40 -105.5t95 -43.5q51 0 85.5 28.5t60.5 104.5zM471 909q92 0 163 -25t120 -98q45 59 125.5 92t171.5 31 q176 0 257 -59.5t81 -149.5q0 -129 -135 -189t-423 -67q2 -151 74 -252.5t168 -101.5q62 0 114.5 32.5t108.5 100.5l82 -49q-47 -89 -132.5 -144t-198.5 -55q-116 0 -187 41t-139 127q-47 -81 -128.5 -124.5t-178.5 -43.5q-62 0 -115.5 10t-100.5 32.5t-74.5 64.5t-27.5 100 q0 140 133 227t387 109q0 155 -47 235.5t-123 80.5q-57 0 -93 -20.5t-36 -53.5q0 -23 7.5 -50.5t7.5 -37.5q0 -30 -25 -57t-86 -27q-50 0 -76 31t-26 75q0 58 58 109t138.5 78.5t155.5 27.5z" />
<glyph unicode="&#xe7;" horiz-adv-x="890" d="M430 -160q-52 0 -92 -12l-12 12l67 150q-157 30 -237 139t-80 283q0 216 128.5 356.5t313.5 140.5q158 0 241 -61.5t83 -151.5q0 -49 -27.5 -81.5t-75.5 -32.5t-79.5 27t-36.5 69q-6 59 -33 102t-80 43q-85 0 -143 -97.5t-58 -262.5q0 -162 75 -270.5t179 -108.5 q58 0 110 30t118 103l40 -39q-46 -94 -129.5 -146t-191.5 -52q-35 0 -51 2l-33 -82q24 6 53 6q63 0 104.5 -35t41.5 -92q0 -65 -62.5 -105.5t-156.5 -40.5q-71 0 -152 35l20 45q78 -28 119 -28q50 0 86.5 22t36.5 62q0 32 -25 51.5t-61 19.5z" />
<glyph unicode="&#xe8;" horiz-adv-x="944" d="M315 584h328q4 4 4 22q0 111 -44 164t-95 53q-16 0 -34 -4.5t-44 -20t-47.5 -40t-40.5 -70t-27 -104.5zM813 223l51 -43q-99 -200 -360 -200q-113 0 -198.5 34.5t-136 94.5t-75 134.5t-24.5 162.5q0 113 38.5 210t101 159.5t141 98t159.5 35.5q87 0 154 -21.5t107.5 -56 t66.5 -83.5t35.5 -98t9.5 -105q0 -43 -80 -43h-498v-53q0 -151 79.5 -253t199.5 -102q122 0 229 129zM471 1374l135 -244q12 -21 12 -51q0 -13 -10 -22.5t-24 -9.5q-17 0 -62 38l-239 207l4 23q72 63 143 63q25 0 41 -4z" />
<glyph unicode="&#xe9;" horiz-adv-x="944" d="M315 584h328q4 4 4 22q0 111 -44 164t-95 53q-16 0 -34 -4.5t-44 -20t-47.5 -40t-40.5 -70t-27 -104.5zM813 223l51 -43q-99 -200 -360 -200q-113 0 -198.5 34.5t-136 94.5t-75 134.5t-24.5 162.5q0 113 38.5 210t101 159.5t141 98t159.5 35.5q87 0 154 -21.5t107.5 -56 t66.5 -83.5t35.5 -98t9.5 -105q0 -43 -80 -43h-498v-53q0 -151 79.5 -253t199.5 -102q122 0 229 129zM578 1374q12 4 30 4q33 0 55 -8t38.5 -23t19.5 -16l20 -45l-237 -213q-33 -29 -72 -29q-12 0 -21.5 8t-9.5 17q0 27 13 47z" />
<glyph unicode="&#xea;" horiz-adv-x="944" d="M315 584h328q4 4 4 22q0 111 -44 164t-95 53q-16 0 -34 -4.5t-44 -20t-47.5 -40t-40.5 -70t-27 -104.5zM813 223l51 -43q-99 -200 -360 -200q-113 0 -198.5 34.5t-136 94.5t-75 134.5t-24.5 162.5q0 113 38.5 210t101 159.5t141 98t159.5 35.5q87 0 154 -21.5t107.5 -56 t66.5 -83.5t35.5 -98t9.5 -105q0 -43 -80 -43h-498v-53q0 -151 79.5 -253t199.5 -102q122 0 229 129zM553 1323q67 -109 207 -264l-49 -37q-71 43 -117 78t-94 86q-52 -53 -95 -86t-114 -78l-49 37q154 178 209 264h102z" />
<glyph unicode="&#xeb;" horiz-adv-x="944" d="M569 1169q0 47 32.5 79t78.5 32q45 0 78 -32.5t33 -78.5q0 -44 -33 -76t-78 -32q-46 0 -78.5 32t-32.5 76zM199 1169q0 46 32.5 78.5t77.5 32.5q47 0 79 -32t32 -79q0 -44 -32.5 -76t-78.5 -32q-44 0 -77 32t-33 76zM315 592h328q4 4 4 22q0 111 -44 164t-95 53 q-16 0 -34 -4.5t-44 -20t-47.5 -40t-40.5 -70t-27 -104.5zM813 231l51 -43q-99 -200 -360 -200q-113 0 -198.5 34.5t-136 94.5t-75 134.5t-24.5 162.5q0 113 38.5 210t101 160t141 98.5t159.5 35.5q87 0 154 -21.5t107.5 -56.5t66.5 -84t35.5 -98t9.5 -105q0 -43 -80 -43 h-498v-53q0 -151 79.5 -253t199.5 -102q122 0 229 129z" />
<glyph unicode="&#xec;" horiz-adv-x="585" d="M244 1374l135 -244q12 -21 12 -51q0 -13 -10.5 -22.5t-24.5 -9.5q-16 0 -61 38l-240 207l4 23q77 63 144 63q25 0 41 -4zM432 657v-499q0 -41 23 -59.5t73 -28.5l21 -4q16 -6 16 -19v-47l-4 -4q-166 4 -246 4l-239 -4l-4 4v47q0 14 14 19l25 4q50 8 73 27t23 61v499 q0 73 -11 99t-34 28l-84 9l-4 61q259 33 350 61q14 0 14 -6q-6 -149 -6 -252z" />
<glyph unicode="&#xed;" horiz-adv-x="585" d="M358 1374q14 4 31 4q33 0 55 -8t38.5 -23t19.5 -16l20 -45l-237 -213q-33 -29 -72 -29q-12 0 -21.5 8t-9.5 17q0 27 13 47zM432 657v-499q0 -41 23 -59.5t73 -28.5l21 -4q16 -6 16 -19v-47l-4 -4q-166 4 -246 4l-239 -4l-4 4v47q0 14 14 19l25 4q50 8 73 27t23 61v499 q0 73 -11 99t-34 28l-84 9l-4 61q259 33 350 61q14 0 14 -6q-6 -149 -6 -252z" />
<glyph unicode="&#xee;" horiz-adv-x="585" d="M332 1323q67 -109 207 -264l-50 -37q-71 44 -116.5 78.5t-93.5 85.5q-52 -53 -95 -86t-114 -78l-50 37q152 173 209 264h103zM432 657v-499q0 -41 23 -59.5t73 -28.5l21 -4q16 -6 16 -19v-47l-4 -4q-166 4 -246 4l-239 -4l-4 4v47q0 14 14 19l25 4q50 8 73 27t23 61v499 q0 73 -11 99t-34 28l-84 9l-4 61q259 33 350 61q14 0 14 -6q-6 -149 -6 -252z" />
<glyph unicode="&#xef;" horiz-adv-x="585" d="M358 1169q0 46 32.5 78.5t78.5 32.5q45 0 78 -32.5t33 -78.5q0 -44 -33 -76t-78 -32q-46 0 -78.5 32t-32.5 76zM-12 1169q0 46 32.5 78.5t77.5 32.5q46 0 78.5 -32t32.5 -79q0 -44 -32.5 -76t-78.5 -32q-44 0 -77 32t-33 76zM432 657v-499q0 -41 23 -59.5t73 -28.5l21 -4 q16 -6 16 -19v-47l-4 -4q-166 4 -246 4l-239 -4l-4 4v47q0 14 14 19l25 4q50 8 73 27t23 61v499q0 73 -11 99t-34 28l-84 9l-4 61q259 33 350 61q14 0 14 -6q-6 -149 -6 -252z" />
<glyph unicode="&#xf0;" horiz-adv-x="1048" d="M70 428q0 102 30.5 186.5t78.5 138t110 90.5t123 52.5t120 15.5q47 0 105 -10q-57 131 -145 246l-226 -152l-65 99l215 143q-22 22 -27 29q-90 86 -145 125l51 69q165 -88 237 -145q41 29 128 86l102 67l65 -98l-198 -133q20 -20 30 -31q147 -148 234.5 -330t87.5 -387 q0 -127 -40 -227.5t-108 -161.5t-153.5 -93t-181.5 -32q-102 0 -185.5 40.5t-135 106.5t-79.5 145t-28 161zM530 70q26 0 51.5 9t54.5 35.5t50.5 68t36 113.5t14.5 165q0 127 -43 280q-76 84 -166 84q-60 0 -106 -34.5t-70 -90.5t-35.5 -115t-11.5 -120q0 -166 68 -280.5 t157 -114.5z" />
<glyph unicode="&#xf1;" horiz-adv-x="1153" d="M426 780q168 129 309 129q64 0 110 -17t73 -44.5t42 -72t20 -89t5 -106.5v-424q0 -40 22.5 -56t77.5 -30l17 -4q16 -6 16 -19v-47l-4 -4q-164 4 -244 4l-229 -4l-4 4v47q0 14 16 19l9 2q54 14 76 31t22 57v438q0 112 -16.5 156.5t-69.5 44.5q-93 0 -248 -97v-542 q0 -39 23 -56.5t75 -31.5l8 -2q17 -6 17 -19v-47l-4 -4q-156 4 -236 4l-237 -4l-4 4v47q0 14 16 19l18 4q55 12 77 28.5t22 57.5v501q0 73 -11 99t-34 28l-84 9l-4 61q244 31 344 61q14 0 14 -6l-4 -129h4zM733 1176q36 0 57 22.5t41 91.5l54 -20q-19 -102 -64 -157.5 t-114 -55.5q-48 0 -129 59q-74 51 -113 51t-60 -23t-36 -81l-52 16q21 104 59.5 156.5t102.5 52.5q29 0 58.5 -11t45.5 -21.5t44 -30.5q64 -49 106 -49z" />
<glyph unicode="&#xf2;" horiz-adv-x="1062" d="M512 825q-62 0 -107.5 -54t-65.5 -132.5t-20 -169.5q0 -60 15 -127t43.5 -130t77 -103.5t108.5 -40.5q32 0 60.5 12.5t57.5 43.5t46.5 96t17.5 157q0 215 -63 331.5t-170 116.5zM70 424q0 216 122.5 350.5t339.5 134.5q97 0 176 -28t131 -74t87.5 -107.5t51 -126 t15.5 -131.5q0 -63 -17 -127t-54.5 -124.5t-90.5 -107t-131 -75t-170 -28.5q-108 0 -198 39.5t-145.5 103.5t-86 142t-30.5 159zM500 1374l135 -244q12 -21 12 -51q0 -13 -10.5 -22.5t-24.5 -9.5q-16 0 -61 38l-240 207l4 23q77 63 144 63q25 0 41 -4z" />
<glyph unicode="&#xf3;" horiz-adv-x="1062" d="M512 825q-62 0 -107.5 -54t-65.5 -132.5t-20 -169.5q0 -60 15 -127t43.5 -130t77 -103.5t108.5 -40.5q32 0 60.5 12.5t57.5 43.5t46.5 96t17.5 157q0 215 -63 331.5t-170 116.5zM70 424q0 216 122.5 350.5t339.5 134.5q97 0 176 -28t131 -74t87.5 -107.5t51 -126 t15.5 -131.5q0 -63 -17 -127t-54.5 -124.5t-90.5 -107t-131 -75t-170 -28.5q-108 0 -198 39.5t-145.5 103.5t-86 142t-30.5 159zM578 1374q12 4 30 4q33 0 55 -8t38.5 -23t19.5 -16l20 -45l-237 -213q-33 -29 -72 -29q-12 0 -21.5 8t-9.5 17q0 27 13 47z" />
<glyph unicode="&#xf4;" horiz-adv-x="1062" d="M512 825q-62 0 -107.5 -54t-65.5 -132.5t-20 -169.5q0 -60 15 -127t43.5 -130t77 -103.5t108.5 -40.5q32 0 60.5 12.5t57.5 43.5t46.5 96t17.5 157q0 215 -63 331.5t-170 116.5zM70 424q0 216 122.5 350.5t339.5 134.5q97 0 176 -28t131 -74t87.5 -107.5t51 -126 t15.5 -131.5q0 -63 -17 -127t-54.5 -124.5t-90.5 -107t-131 -75t-170 -28.5q-108 0 -198 39.5t-145.5 103.5t-86 142t-30.5 159zM571 1323q66 -106 207 -264l-49 -37q-70 42 -116 77t-95 87q-52 -53 -95 -86t-114 -78l-49 37q152 173 209 264h102z" />
<glyph unicode="&#xf5;" horiz-adv-x="1062" d="M512 825q-62 0 -107.5 -54t-65.5 -132.5t-20 -169.5q0 -60 15 -127t43.5 -130t77 -103.5t108.5 -40.5q32 0 60.5 12.5t57.5 43.5t46.5 96t17.5 157q0 215 -63 331.5t-170 116.5zM70 424q0 216 122.5 350.5t339.5 134.5q97 0 176 -28t131 -74t87.5 -107.5t51 -126 t15.5 -131.5q0 -63 -17 -127t-54.5 -124.5t-90.5 -107t-131 -75t-170 -28.5q-108 0 -198 39.5t-145.5 103.5t-86 142t-30.5 159zM647 1176q36 0 57 22.5t41 91.5l54 -20q-19 -102 -64 -157.5t-114 -55.5q-48 0 -129 59q-74 51 -113 51t-60 -23t-36 -81l-52 16 q21 104 59.5 156.5t102.5 52.5q29 0 58.5 -11t45.5 -21.5t44 -30.5q62 -49 106 -49z" />
<glyph unicode="&#xf6;" horiz-adv-x="1062" d="M512 825q-62 0 -107.5 -54t-65.5 -132.5t-20 -169.5q0 -60 15 -127t43.5 -130t77 -103.5t108.5 -40.5q32 0 60.5 12.5t57.5 43.5t46.5 96t17.5 157q0 215 -63 331.5t-170 116.5zM70 424q0 216 122.5 350.5t339.5 134.5q97 0 176 -28t131 -74t87.5 -107.5t51 -126 t15.5 -131.5q0 -63 -17 -127t-54.5 -124.5t-90.5 -107t-131 -75t-170 -28.5q-108 0 -198 39.5t-145.5 103.5t-86 142t-30.5 159zM596 1169q0 47 32 79t79 32q45 0 77.5 -32.5t32.5 -78.5q0 -44 -33 -76t-77 -32q-46 0 -78.5 32t-32.5 76zM225 1169q0 46 33 78.5t78 32.5 q46 0 78 -32.5t32 -78.5q0 -44 -32 -76t-78 -32q-45 0 -78 32t-33 76z" />
<glyph unicode="&#xf7;" horiz-adv-x="1099" d="M453 754q0 40 28 68t68 28t68 -28t28 -68q0 -39 -28 -67t-68 -28t-68 28t-28 67zM453 205q0 40 28 68t68 28t68 -28t28 -68q0 -38 -28 -66t-68 -28t-68 28t-28 66zM954 551v-152h-809v152h809z" />
<glyph unicode="&#xf8;" horiz-adv-x="1062" d="M881 973l75 -60l-100 -122q69 -67 103 -159t34 -190q0 -63 -17 -127t-54.5 -124.5t-90.5 -107t-131 -75t-170 -28.5q-158 0 -272 81l-106 -131l-74 66l106 129q-114 131 -114 299q0 216 122.5 350.5t339.5 134.5q146 0 246 -59zM512 825q-62 0 -107.5 -54t-65.5 -132.5 t-20 -169.5q0 -73 21 -154l334 408q-58 102 -162 102zM717 621l-338 -412q72 -141 184 -141q32 0 60.5 12.5t57.5 43.5t46.5 96t17.5 157q0 141 -28 244z" />
<glyph unicode="&#xf9;" horiz-adv-x="1126" d="M946 236q0 -53 27.5 -82t103.5 -33l2 -64q-87 -11 -146.5 -26t-83.5 -25.5t-58 -30.5h-70l6 97q-142 -92 -264 -92q-86 0 -144.5 23t-88 65.5t-41 88.5t-11.5 105v459q0 48 -12.5 71.5t-46.5 26.5l-64 4l-6 4v62l10 4q162 -4 228 -4l119 4q-3 -92 -3 -168v-434 q0 -61 11 -104.5t29 -65t35.5 -30.5t35.5 -9q119 0 207 76v563q0 98 -57 98l-64 4l-8 4v62l8 4q172 -4 227 -4l123 4q-4 -86 -4 -168v-489zM489 1374l136 -244q12 -21 12 -51q0 -13 -10.5 -22.5t-24.5 -9.5q-18 0 -61 38l-240 207l4 23q77 63 144 63q24 0 40 -4z" />
<glyph unicode="&#xfa;" horiz-adv-x="1126" d="M946 236q0 -53 27.5 -82t103.5 -33l2 -64q-87 -11 -146.5 -26t-83.5 -25.5t-58 -30.5h-70l6 97q-142 -92 -264 -92q-86 0 -144.5 23t-88 65.5t-41 88.5t-11.5 105v459q0 48 -12.5 71.5t-46.5 26.5l-64 4l-6 4v62l10 4q162 -4 228 -4l119 4q-3 -92 -3 -168v-434 q0 -61 11 -104.5t29 -65t35.5 -30.5t35.5 -9q119 0 207 76v563q0 98 -57 98l-64 4l-8 4v62l8 4q172 -4 227 -4l123 4q-4 -86 -4 -168v-489zM633 1374q12 4 31 4q33 0 54.5 -8t39 -23t18.5 -16l21 -45l-238 -213q-33 -29 -72 -29q-12 0 -21 8t-9 17q0 27 12 47z" />
<glyph unicode="&#xfb;" horiz-adv-x="1126" d="M946 236q0 -53 27.5 -82t103.5 -33l2 -64q-87 -11 -146.5 -26t-83.5 -25.5t-58 -30.5h-70l6 97q-142 -92 -264 -92q-86 0 -144.5 23t-88 65.5t-41 88.5t-11.5 105v459q0 48 -12.5 71.5t-46.5 26.5l-64 4l-6 4v62l10 4q162 -4 228 -4l119 4q-3 -92 -3 -168v-434 q0 -61 11 -104.5t29 -65t35.5 -30.5t35.5 -9q119 0 207 76v563q0 98 -57 98l-64 4l-8 4v62l8 4q172 -4 227 -4l123 4q-4 -86 -4 -168v-489zM582 1323q65 -105 206 -264l-49 -37q-70 42 -116 77t-95 87q-51 -53 -94 -85.5t-115 -78.5l-49 37q152 173 209 264h103z" />
<glyph unicode="&#xfc;" horiz-adv-x="1126" d="M946 236q0 -53 27.5 -82t103.5 -33l2 -64q-87 -11 -146.5 -26t-83.5 -25.5t-58 -30.5h-70l6 97q-142 -92 -264 -92q-86 0 -144.5 23t-88 65.5t-41 88.5t-11.5 105v459q0 48 -12.5 71.5t-46.5 26.5l-64 4l-6 4v62l10 4q162 -4 228 -4l119 4q-3 -92 -3 -168v-434 q0 -61 11 -104.5t29 -65t35.5 -30.5t35.5 -9q119 0 207 76v563q0 98 -57 98l-64 4l-8 4v62l8 4q172 -4 227 -4l123 4q-4 -86 -4 -168v-489zM618 1169q0 46 32.5 78.5t78.5 32.5q45 0 78 -32.5t33 -78.5q0 -44 -33 -76t-78 -32q-46 0 -78.5 32t-32.5 76zM248 1169 q0 46 32.5 78.5t77.5 32.5q46 0 78.5 -32t32.5 -79q0 -44 -32.5 -76t-78.5 -32q-44 0 -77 32t-33 76z" />
<glyph unicode="&#xfd;" horiz-adv-x="1091" d="M885 698l-340 -843q-30 -73 -58 -125.5t-67 -102.5t-88.5 -76t-108.5 -26q-27 0 -60 9t-64 36t-31 65q0 51 36 79t84 28q23 0 48.5 -16t37.5 -33q24 -35 39 -35q9 0 26 20t45.5 72t55.5 125l37 100l-289 713q-32 81 -60 108t-87 27q-21 0 -21 15v51l7 4q133 -4 217 -4 l248 4l8 -4v-49q0 -17 -17 -17q-60 0 -77 -22t2 -70l190 -516q125 303 188 512q32 96 -81 96q-17 0 -17 15v49l8 6q140 -4 230 -4l131 4l4 -4v-47q0 -8 -6.5 -13.5t-16.5 -5.5q-46 0 -87 -31.5t-66 -93.5zM670 1374q12 4 30 4q33 0 54.5 -8t39.5 -23t19 -16l21 -45 l-238 -213q-33 -29 -72 -29q-12 0 -21 8t-9 17q0 27 12 47z" />
<glyph unicode="&#xfe;" horiz-adv-x="1095" d="M422 664v-531q62 -67 125 -67q64 0 111 32t72.5 86.5t37.5 115.5t12 130q0 371 -176 371q-40 0 -93 -37.5t-89 -99.5zM422 1194l-4 -428q95 143 252 143q107 0 187.5 -61.5t119.5 -156.5t39 -206q0 -229 -158 -389q-116 -116 -299 -116q-63 0 -137 34v-329 q0 -40 22.5 -58.5t75.5 -32.5l17 -4q18 -4 18 -16v-49l-4 -4q-166 4 -246 4l-237 -4l-5 4v49q0 13 17 16l18 4q53 12 76 31t23 60v1468q0 93 -14 121.5t-48 28.5l-65 4q-13 0 -13 10l-6 59q75 5 192 22.5t152 31.5q33 0 33 -21q-4 -82 -6 -215z" />
<glyph unicode="&#xff;" horiz-adv-x="1091" d="M885 698l-340 -843q-30 -73 -58 -125.5t-67 -102.5t-88.5 -76t-108.5 -26q-27 0 -60 9t-64 36t-31 65q0 51 36 79t84 28q23 0 48.5 -16t37.5 -33q24 -35 39 -35q9 0 26 20t45.5 72t55.5 125l37 100l-289 713q-32 81 -60 108t-87 27q-21 0 -21 15v51l7 4q133 -4 217 -4 l248 4l8 -4v-49q0 -17 -17 -17q-60 0 -77 -22t2 -70l190 -516q125 303 188 512q32 96 -81 96q-17 0 -17 15v49l8 6q140 -4 230 -4l131 4l4 -4v-47q0 -8 -6.5 -13.5t-16.5 -5.5q-46 0 -87 -31.5t-66 -93.5zM653 1169q0 47 32.5 79t78.5 32q45 0 77.5 -32.5t32.5 -78.5 q0 -44 -33 -76t-77 -32q-46 0 -78.5 32t-32.5 76zM283 1169q0 46 32.5 78.5t77.5 32.5q47 0 79 -32t32 -79q0 -44 -32.5 -76t-78.5 -32q-44 0 -77 32t-33 76z" />
<glyph unicode="&#x152;" horiz-adv-x="1740" d="M713 82h24q33 0 46.5 16.5t13.5 55.5v1015q0 42 -13 55t-47 13h-69q-54 0 -101.5 -17.5t-90.5 -59t-73.5 -105t-48.5 -161.5t-18 -222q0 -150 32 -266.5t86.5 -185.5t120 -103.5t138.5 -34.5zM1597 1321q18 -190 45 -330l-81 -20q-11 39 -21 68t-28.5 67t-40.5 62.5 t-55 41.5t-73 17h-268q-26 0 -26 -58v-421h231q14 0 25 7.5t17.5 18.5t12 32t8.5 39t7 48q2 7 11 13.5t23 6.5h43l13 -18q-15 -131 -15 -190q0 -67 15 -191l-13 -20h-43q-14 0 -23 7.5t-11 14.5q-5 38 -9 58.5t-11.5 44t-19.5 33.5t-30 10h-231v-510q0 -34 6.5 -46t19.5 -12 h316q79 0 136 75.5t83 195.5l90 -21q-28 -134 -55 -344h-928q-151 0 -274.5 50t-204.5 138t-124.5 207t-43.5 258q0 111 25.5 211.5t77.5 184t125.5 145t174.5 95.5t219 34z" />
<glyph unicode="&#x153;" horiz-adv-x="1636" d="M1190 825q-44 0 -81.5 -30t-60.5 -76t-35 -79.5t-18 -61.5h344q-2 37 -9.5 75t-23.5 79t-46 67t-70 26zM299 502q0 -212 62.5 -323t181.5 -111q29 0 64.5 19.5t72 58.5t60.5 111t24 163q0 397 -236 397q-98 0 -163.5 -87.5t-65.5 -227.5zM528 911q237 0 346 -143 q129 143 320 143q192 0 286.5 -117t94.5 -311h-588v-34q0 -76 15 -139t39 -103.5t55.5 -68.5t62 -40t60.5 -12q50 0 124 35.5t127 93.5l78 -59q-21 -29 -33 -44t-45 -45.5t-66.5 -47t-89 -30.5t-120.5 -14q-116 0 -188.5 40t-147.5 122q-140 -162 -338 -162q-99 0 -184.5 39 t-143 102.5t-90 144.5t-32.5 165q0 117 36.5 211t100 153t145.5 90t176 31z" />
<glyph unicode="&#x178;" horiz-adv-x="1263" d="M520 147v428l-321 558q-49 81 -77.5 101.5t-74.5 20.5h-24q-23 0 -23 15v51l4 4q234 -4 260 -4l234 4l4 -4v-49q0 -17 -15 -17q-42 0 -63 -2t-32.5 -10.5t-8 -22.5t19.5 -40l285 -496l262 496q17 31 -8 53t-80 22q-12 0 -12 15v51l4 4q162 -4 186 -4l220 4l4 -4v-49 q0 -17 -21 -17h-43q-47 0 -73 -16t-52 -63l-305 -576v-453q0 -46 25.5 -62.5t87.5 -16.5h55q16 0 16 -19v-47l-4 -4q-223 4 -303 4l-305 -4l-2 4v47q0 19 14 19h56q62 0 86 18t24 61zM725 1534q0 46 32.5 78.5t78.5 32.5q44 0 77 -32.5t33 -78.5q0 -44 -33 -76.5t-77 -32.5 q-46 0 -78.5 32t-32.5 77zM354 1534q0 45 33 78t78 33q46 0 78 -32.5t32 -78.5q0 -44 -32.5 -76.5t-77.5 -32.5q-44 0 -77.5 32.5t-33.5 76.5z" />
<glyph unicode="&#x2c6;" horiz-adv-x="714" d="M440 1368q70 -113 207 -264l-49 -37q-70 42 -116 77t-95 87q-52 -53 -95 -86t-114 -78l-49 37q152 173 209 264h102z" />
<glyph unicode="&#x2dc;" horiz-adv-x="598" d="M453 1274q36 0 56.5 22.5t41.5 92.5l53 -21q-18 -102 -63.5 -157.5t-114.5 -55.5q-21 0 -46.5 10.5t-39 19t-43.5 29.5q-75 52 -113 52q-39 0 -59.5 -23.5t-36.5 -81.5l-51 17q20 103 59 155.5t103 52.5q41 0 74 -16.5t73 -46.5q64 -49 107 -49z" />
<glyph unicode="&#x2000;" horiz-adv-x="839" />
<glyph unicode="&#x2001;" horiz-adv-x="1679" />
<glyph unicode="&#x2002;" horiz-adv-x="839" />
<glyph unicode="&#x2003;" horiz-adv-x="1679" />
<glyph unicode="&#x2004;" horiz-adv-x="559" />
<glyph unicode="&#x2005;" horiz-adv-x="419" />
<glyph unicode="&#x2006;" horiz-adv-x="279" />
<glyph unicode="&#x2007;" horiz-adv-x="279" />
<glyph unicode="&#x2008;" horiz-adv-x="209" />
<glyph unicode="&#x2009;" horiz-adv-x="335" />
<glyph unicode="&#x200a;" horiz-adv-x="93" />
<glyph unicode="&#x2010;" horiz-adv-x="731" d="M586 477h-459q-35 0 -55.5 12.5t-20.5 30.5q0 27 31 54.5t63 27.5h463q74 0 74 -43q0 -22 -31.5 -52t-64.5 -30z" />
<glyph unicode="&#x2011;" horiz-adv-x="731" d="M586 477h-459q-35 0 -55.5 12.5t-20.5 30.5q0 27 31 54.5t63 27.5h463q74 0 74 -43q0 -22 -31.5 -52t-64.5 -30z" />
<glyph unicode="&#x2013;" horiz-adv-x="1093" d="M82 598h932v-121h-932v121z" />
<glyph unicode="&#x2014;" horiz-adv-x="1519" d="M59 598h1401v-121h-1401v121z" />
<glyph unicode="&#x2018;" horiz-adv-x="548" d="M258 1024q-143 0 -143 209q0 83 69.5 155t188.5 93l14 -68q-72 -19 -109.5 -56.5t-37.5 -72.5q0 -21 8 -32.5t16 -14.5t21 -4q88 -17 88 -103q0 -47 -29.5 -76.5t-85.5 -29.5z" />
<glyph unicode="&#x2019;" horiz-adv-x="548" d="M291 1444q143 0 143 -209q0 -83 -69.5 -155t-188.5 -93l-14 68q72 18 109.5 56t37.5 73q0 21 -8 32.5t-16 14.5t-21 4q-88 17 -88 102q0 47 29.5 77t85.5 30z" />
<glyph unicode="&#x201a;" horiz-adv-x="548" d="M291 209q143 0 143 -209q0 -83 -69.5 -155t-188.5 -93l-14 68q72 18 109.5 56t37.5 73q0 21 -8 32.5t-16 14.5t-21 4q-88 17 -88 102q0 47 29.5 77t85.5 30z" />
<glyph unicode="&#x201c;" horiz-adv-x="768" d="M528 1026q-143 0 -143 209q0 83 69.5 155t188.5 93l14 -68q-72 -18 -109.5 -56t-37.5 -73q0 -21 8.5 -33t16 -14.5t20.5 -3.5q88 -17 88 -102q0 -47 -29.5 -77t-85.5 -30zM207 1026q-144 0 -144 209q0 83 70 155t189 93l14 -68q-72 -18 -110 -55.5t-38 -73.5 q0 -21 8.5 -33t16 -14.5t20.5 -3.5q89 -17 89 -102q0 -47 -29.5 -77t-85.5 -30z" />
<glyph unicode="&#x201d;" horiz-adv-x="768" d="M242 1444q143 0 143 -209q0 -83 -69.5 -155t-188.5 -93l-14 68q72 18 109.5 56t37.5 73q0 21 -8.5 33t-16 14.5t-20.5 3.5q-88 17 -88 102q0 47 29.5 77t85.5 30zM563 1444q144 0 144 -209q0 -83 -70 -155t-188 -93l-15 68q72 18 110 55.5t38 73.5q0 21 -8.5 33t-16 14.5 t-20.5 3.5q-43 8 -65.5 31.5t-22.5 70.5q0 48 29 77.5t85 29.5z" />
<glyph unicode="&#x201e;" horiz-adv-x="768" d="M242 207q143 0 143 -209q0 -83 -69.5 -155t-188.5 -93l-14 68q72 18 109.5 56t37.5 73q0 21 -8.5 33t-16 14.5t-20.5 3.5q-88 17 -88 102q0 47 29.5 77t85.5 30zM563 207q144 0 144 -209q0 -83 -70 -155t-188 -93l-15 68q72 18 110 56t38 73q0 21 -8.5 33t-16 14.5 t-20.5 3.5q-43 8 -65.5 31.5t-22.5 70.5q0 48 29 77.5t85 29.5z" />
<glyph unicode="&#x2022;" horiz-adv-x="718" d="M100 479q0 105 78.5 180.5t179.5 75.5q105 0 182.5 -76.5t77.5 -185.5q0 -101 -72.5 -179.5t-187.5 -78.5q-106 0 -182 77t-76 187z" />
<glyph unicode="&#x2026;" horiz-adv-x="1533" d="M135 92q0 48 33.5 81.5t81.5 33.5q47 0 81 -33.5t34 -81.5q0 -46 -34 -79t-81 -33q-48 0 -81.5 33t-33.5 79zM676 92q0 48 33.5 81.5t81.5 33.5q47 0 80.5 -33.5t33.5 -81.5q0 -46 -33.5 -79t-80.5 -33q-48 0 -81.5 33t-33.5 79zM1219 92q0 48 33.5 81.5t80.5 33.5 q48 0 81.5 -33.5t33.5 -81.5q0 -46 -33.5 -79t-81.5 -33q-47 0 -80.5 33t-33.5 79z" />
<glyph unicode="&#x202f;" horiz-adv-x="335" />
<glyph unicode="&#x2039;" horiz-adv-x="727" d="M606 936v-184q-60 -91 -126 -158.5t-167 -151.5q93 -72 162 -142t131 -165v-190q-163 191 -280 299t-220 164v67q110 78 227 185.5t273 275.5z" />
<glyph unicode="&#x203a;" horiz-adv-x="727" d="M123 -55v184q60 91 127 159t166 150q-93 72 -162 142t-131 165v191q163 -191 280 -299t220 -164v-67q-110 -78 -227 -185.5t-273 -275.5z" />
<glyph unicode="&#x205f;" horiz-adv-x="419" />
<glyph unicode="&#x20ac;" d="M39 627l2 18l39 62h35q33 223 164 357t307 134q56 0 143.5 -16.5t114.5 -14.5q2 -106 41 -299l-78 -10q-13 49 -23 81.5t-29 71t-40.5 61.5t-55.5 38.5t-77 15.5q-77 0 -129 -58.5t-75.5 -148t-29.5 -212.5h418l-39 -80h-383v-33v-62h350l-39 -79h-307q11 -204 68.5 -298 t179.5 -94q48 0 83.5 18.5t59 55.5t38 73t32.5 90q6 21 10 32l78 -15q-8 -50 -38.5 -160.5t-37.5 -148.5q-26 2 -107.5 -14.5t-138.5 -16.5q-181 0 -307 130t-155 348h-103v16l39 63h55v39q0 37 2 56h-67z" />
<glyph unicode="&#x2122;" horiz-adv-x="1628" d="M424 698q0 -49 61 -49h29q10 0 10 -10v-27l-2 -2q-129 2 -170 2l-168 -2l-2 2v27q0 10 11 10h28q34 0 49 11t15 38v543q0 24 -6.5 32.5t-22.5 8.5h-104q-34 0 -49 -18.5t-31 -85.5l-45 12l39 184l49 -16q-1 -2 -2 -8t-2 -10.5t-2 -4.5h477q-1 0 -2 4.5t-2 10.5t-2 8 l51 16l39 -186l-47 -10q-18 68 -33 86t-49 18h-88q-17 0 -23 -8.5t-6 -34.5v-541zM1380 705l-34 403l-203 -498q-7 -20 -33 -20q-24 0 -35 20l-205 488q-16 -260 -28 -396v-12q0 -47 14 -47h31q35 0 35 -14v-17l-7 -12q-79 4 -124 4l-97 -4l-10 12v17q0 14 37 14h29 q13 0 22 62q6 85 20.5 269.5t20.5 274.5v6v5q0 34 -18 34h-33q-35 3 -35 13v16l10 12h183l229 -542l219 542h168l6 -12v-16q0 -13 -35 -13h-30q-19 0 -19 -32v-13l47 -544q4 -31 9 -46.5t16 -15.5h29q38 0 38 -14v-17l-12 -12q-90 4 -133 4l-135 -4l-12 12v17q0 14 34 14h29 q12 0 12 47v15z" />
</font>
</defs>
</svg>
